Tvoj účet nieje VIP.
Preto sú tvoje funkcie a možnosti značne obmedzené.
Pre aktiváciu VIP klikni sem.

Sk - CzTorrent Tracker - Wildkatzen 6 (2002)[DVDRIP][.MP4]

Nový Cz-SkTorrent open Tracker, na volné zdielanie súborov. Pridajte sa k nasej komunite a získajte pristup k tisícom torrentov.

  • vysoká rýchlost
  • úplne zdarma
  • prevazne Slovenska a Ceska scena
  • Vitaj Guest (Login) Ako stahovat
    torrenty?
    Torrenty:
    v1 textová
    v2 obrázková
    v3 online filmy
    Ako sa stat
    Uploaderom
    Online
    Filmy
    Forum
    Pravidlá
    BitTorrent
    klient
    Meno: Heslo:
    Zaregistrovat
    Po zaregistrovaní mozte volne stahovat
    Zabudol som heslo

    Torrent's details
    Wildkatzen 6 (2002)[DVDRIP][.MP4] Názov:Wildkatzen 6 (2002)[DVDRIP][.MP4] Hodnocení:
    Pozriet Online
    Kategória:xXx Velikost:1.3 GB BitTorrent klient
    Pridaný: Súbory: Bitlet Download
    Skontrolován:11/01/2017 Peerov:0 (Seed: 0, Leech: 0) torrent2exe Down
    Zaner: Uploader:Uvidis, az ked budes
    VIP
    Kúp nám Pivo 1,10€

    Kúp nám Pivo
    Podporte nas na Facebooku !
    Pridaj do zalozky
    Pridaj do zalozky




    Wildkatzen 6 (2002)[DVDRIP][.MP4]

    Screen:

    http://blobopics.biz/share-7FC2_587644A8.html

    http://blobopics.biz/share-58DB_587644A8.html

    http://blobopics.biz/share-867E_587644A8.html

    http://blobopics.biz/share-B43A_587644A8.html

    http://blobopics.biz/share-BBEE_587644A8.html

    COVER:

    http://blobopics.biz/share-9235_587644A8.html

    File Size: 1,25 GB | Resolution: 704x528 | Duration: 01:46:10 | Format: mp4

    Year: 2002
    Genre: All Sex, Oral, Anal, Straight, Group Sex, Stockings
    Playtime: 01:24:23

    Starring: Olivia del Rio, Gisela Kunz, Melanie

    Description: These elderly and young women get fucked hard. They are German and they are sluts!!! Cum see these dirty pigs engage in multiple three-ways where every hole is accessible!! These whores love to watch their men cum all over them and they want you to watch !!

    Quality: DVDRip
    Video: xvid, 480×352, 25.000 FPS, 1160 kb/s
    Audio: MP3, 44.1 kHz, 2 channels, Joint stereo, 128 kb/s

    Format : MPEG-4
    Format profile : Base Media / Version 2
    Codec ID : mp42
    File size : 1.26 GiB
    Duration : 1h 46mn
    Overall bit rate mode : Variable
    Overall bit rate : 1 693 Kbps
    Encoded date : UTC 2012-08-24 12:43:17
    Tagged date : UTC 2012-08-24 13:14:10
    Writing application : HandBrake 0.9.8 2012072200

    Video
    ID : 1
    Format : AVC
    Format/Info : Advanced Video Codec
    Format profile : Main@L3.0
    Format settings, CABAC : Yes
    Format settings, ReFrames : 4 frames
    Codec ID : avc1
    Codec ID/Info : Advanced Video Coding
    Duration : 1h 46mn
    Bit rate mode : Variable
    Bit rate : 1 600 Kbps
    Width : 704 pixels
    Height : 528 pixels
    Display aspect ratio : 4:3
    Frame rate mode : Variable
    Frame rate : 25.000 fps
    Minimum frame rate : 16.648 fps
    Maximum frame rate : 25.000 fps
    Color space : YUV
    Chroma subsampling : 4:2:0
    Bit depth : 8 bits
    Scan type : Progressive
    Bits/(Pixel*Frame) : 0.172
    Stream size : 1.18 GiB (94%)
    Writing library : x264 core 120
    Encoding settings : cabac=1 / ref=1 / deblock=1:-1:-1 / analyse=0x1:0x111 / me=hex / subme=4 / psy=1 / psy_rd=1.00:0.15 / mixed_ref=0 / me_range=16 / chroma_me=1 / trellis=0 / 8x8dct=0 / cqm=0 / deadzone=21,11 / fast_pskip=1 / chroma_qp_offset=0 / threads=6 / sliced_threads=0 / nr=0 / decimate=1 / interlaced=0 / bluray_compat=0 / constrained_intra=0 / bframes=3 / b_pyramid=2 / b_adapt=1 / b_bias=0 / direct=1 / weightb=1 / open_gop=0 / weightp=1 / keyint=250 / keyint_min=25 / scenecut=40 / intra_refresh=0 / rc_lookahead=10 / rc=abr / mbtree=1 / bitrate=1600 / ratetol=1.0 / qcomp=0.60 / qpmin=3 / qpmax=69 / qpstep=4 / ip_ratio=1.40 / aq=1:1.00
    Encoded date : UTC 2012-08-24 12:43:17
    Tagged date : UTC 2012-08-24 13:14:10
    Color primaries : BT.601 NTSC
    Transfer characteristics : BT.709
    Matrix coefficients : BT.601

    Audio
    ID : 2
    Format : AAC
    Format/Info : Advanced Audio Codec
    Format profile : LC
    Codec ID : 40
    Duration : 1h 46mn
    Bit rate mode : Variable
    Bit rate : 96.0 Kbps
    Maximum bit rate : 123 Kbps
    Channel(s) : 2 channels
    Channel positions : Front: L R
    Sampling rate : 48.0 KHz
    Compression mode : Lossy
    Delay relative to video : 80ms
    Stream size : 72.9 MiB (6%)









    Upozornenie:
    Ziadny zo zobrazených súborov sa nenachádza na tomto serveri. Server slúzi len k síreniu vlastnorucne vytvorených aplikácií, videí, hudby ai. Autori stránok nenesú ziadnu zodpovednost za zverejnené odkazy, komentáre a obsah súborov. Vsetky komentáre, odkazy, súbory ktoré by svojou povahou mohli byt v rozpore zo zákonmi sem vkladáte na vlastnú zodpovednost. Autori stránok si vyhradzujú právo cenzúry odkazov, komentárov príp. súborov, ktoré by svojou povahou mohli byt v rozpore zo zákonmi a dobrými mravmi. Dodrzujte pravidlá!


    No comments...


    Back

    Na serveru se nenalézají zádne soubory. Za odkazy jsou výhradně zodpovědní uzivatelé a návstěvníci tohoto trackeru. Administrátor není zodpovědný za pridaný obsah ani za skody zpusobené uzivateli. Rozsirovat stránku nebo její obsah bez souhlasu ownera je zakázano. Nesmíte pouzívat tuto webovou stránku pro distribuovaní nebo download zádného materiálu pokud nemáte povolení od príslusného vlastníka práv. Uzivatelé jsou zodpovědní za dodrzování těchto pravidel a podmínek. Owner má právo kdykoliv změnit pravidla tohoto trackeru.

    [ Script trval: 0.012 sec. ] - [ GZIP: enabled ]
    BtiTracker (1.4.8) by Btiteam
    Je zhruba 17:51

    TOPlist