Tvoj účet nieje VIP.
Preto sú tvoje funkcie a možnosti značne obmedzené.
Pre aktiváciu VIP klikni sem.

Sk-CzTorrent | stiahni si HD Filmy online - Andele v Americe Miniserie / Angels in America Miniseries S01E01 - Milenium-Spatna zprava (2003)(CZ/EN)[720pHD]

Nový Cz-SkTorrent open Tracker, na volné zdielanie súborov. Pridajte sa k nasej komunite a získajte pristup k tisícom torrentov.

  • vysoká rýchlost
  • úplne zdarma
  • prevazne Slovenska a Ceska scena
  • Vitaj Guest (Login) Ako stahovat
    torrenty?
    Torrenty:
    v1 textová
    v2 obrázková
    v3 online filmy
    Ako sa stat
    Uploaderom
    Online
    Filmy
    Forum
    Pravidlá
    BitTorrent
    klient
    Meno: Heslo:
    Zaregistrovat
    Po zaregistrovaní mozte volne stahovat
    Zabudol som heslo

    Torrent's details
    Andele v Americe Miniserie / Angels in America Miniseries S01E01 - Milenium-Spatna zprava (2003)(CZ/EN)[720pHD] Názov:Andele v Americe Miniserie / Angels in America Miniseries S01E01 - Milenium-Spatna zprava (2003)(CZ/EN)[720pHD] Hodnocení: Stiahnut
    Pozriet Online
    Kategória:Seriál Velikost:2.1 GB BitTorrent klient
    Pridaný: Súbory: Bitlet Download
    Skontrolován:2017-06-19 07:16:05 Peerov:0 (Seed: 0, Leech: 0) torrent2exe Down
    Zaner:Drama,Fantasy Uploader:Uvidis, az ked budes
    VIP
    Kúp nám Pivo 1,10€

    Kúp nám Pivo
    Podporte nas na Facebooku !
    Pridaj do zalozky
    Pridaj do zalozky






    FANTASTICKÉ HERECKÉ OBSAZENÍ





    Zhotovitelská kategorie



    Jazyk: 2.0 cz a 2.0 eng
    Délka: 1 Hod 3 minuty (25PAL)
    Rok vydání: USA 2003
    Video: Avc
    Zvuk: Mp3 a Ac-3
    Titulky: cz full na eng
    Žánr: Fantasy drama




    O minisérii



    Bůh opustil nebesa. Píše se rok 1985, v Bílém domě vládne Reagan a smrt swinguje v rytmu AIDS. Ve společnosti vládne pokrytectví, strach z odlišnosti, výčitky za minulé prohřešky, drogy především sex.
    Muž miluje muže. Mají se ke své sexuální orientaci přiznat, nebo je lépe ji skrývat, jako je tomu v případě právníků Roye Cohna a jeho kolegy Joa Pitta? Roy to dělá z obavy o svou kariéru, Joe proto, že se za ni stydí. Je dokonce ženatý s Harper. Ta se poté, co jí manžel odhalí pravdu, dostává na absolutní dno a začne být závislá na valiu.




    Léky, coby jediný utěšující prostředek, se stanou nejlepším společníkem i Roye, který má AIDS (okolí ovšem tvrdí, že má rakovinu jater). Umírá i Prior Walter, který se nakazil, když byl nevěrný svému milenci Louisovi. Louis jej proto opouští a setkává se s Joem.Šestidílná minisérie HBO Andělé v Americe je považována za výjimečnou televizní událost komorní a zároveň epickou podívanou


    Náhledy



    Video / Audio

    Complete name: J:\Argee\Seriály\Andělé v Americe (Minisérie)
    \01 Milénium se blíží-Špatné zprávy.mkv
    Format: Matroska
    Format version: Version 4 / Version 2
    File size: 2.08 GiB
    Duration: 1 h 3 min
    Overall bit rate: 4 719 kb/s
    Encoded date: UTC 2017-06-18 15:23:27
    Writing application: mkvmerge v12.0.0 (Trust / Lust) 32bit
    Writing library: libebml v1.3.4 libmatroska v1.4.5

    Video
    ID: 1
    Format: AVC
    Format/Info: Advanced Video Codec
    Format profile: High@L3.1
    Format settings, CABAC: No
    Format settings, ReFrames: 2 frames
    Codec ID: V_MPEG4/ISO/AVC
    Duration: 1 h 3 min
    Bit rate: 4 204 kb/s
    Width: 1 280 pixels
    Height: 720 pixels
    Display aspect ratio: 16:9
    Frame rate mode: Constant
    Frame rate: 25.000 FPS
    Color space: YUV
    Chroma subsampling: 4:2:0
    Bit depth: 8 bits
    Scan type: Progressive
    Bits/(Pixel*Frame): 0.182
    Stream size: 1.86 GiB (89%)
    Default: Yes
    Forced: No
    Color range: Limited
    Color primaries: BT.709
    Transfer characteristics: BT.709
    Matrix coefficients: BT.709

    Audio #1
    ID: 2
    Format: MPEG Audio
    Format version: Version 1
    Format profile: Layer 3
    Codec ID: A_MPEG/L3
    Codec ID/Hint: MP3
    Duration: 1 h 3 min
    Bit rate mode: Constant
    Bit rate: 192 kb/s
    Channel(s): 2 channels
    Sampling rate: 44.1 kHz
    Frame rate: 38.281 FPS (1152 spf)
    Compression mode: Lossy
    Stream size: 86.8 MiB (4%)
    Title: 2.0
    Writing library: LAMELAME_MAJOR_VERSION
    Language: Czech
    Default: Yes
    Forced: No

    Audio #2
    ID: 3
    Format: AC-3
    Format/Info: Audio Coding 3
    Format settings, Endianness: Big
    Codec ID: A_AC3
    Duration: 1 h 3 min
    Bit rate mode: Constant
    Bit rate: 320 kb/s
    Channel(s): 2 channels
    Channel positions: Front: L R
    Sampling rate: 48.0 kHz
    Frame rate: 31.250 FPS (1536 spf)
    Bit depth: 16 bits
    Compression mode: Lossy
    Stream size: 145 MiB (7%)
    Title: 2.0
    Language: English
    Service kind: Complete Main
    Default: No
    Forced: No

    Text
    ID: 4
    Format: UTF-8
    Codec ID: S_TEXT/UTF8
    Codec ID/Info: UTF-8 Plain Text
    Duration: 56 min 58 s
    Bit rate: 69 b/s
    Count of elements: 879
    Stream size: 29.0 KiB (0%)
    Title: full na eng
    Language: Czech
    Default: Yes
    Forced: No


    Banana King Production







    + Pridaj vlastnu verziu tohto torrentu +


    Upozornenie:
    Ziadny zo zobrazených súborov sa nenachádza na tomto serveri. Server slúzi len k síreniu vlastnorucne vytvorených aplikácií, videí, hudby ai. Autori stránok nenesú ziadnu zodpovednost za zverejnené odkazy, komentáre a obsah súborov. Vsetky komentáre, odkazy, súbory ktoré by svojou povahou mohli byt v rozpore zo zákonmi sem vkladáte na vlastnú zodpovednost. Autori stránok si vyhradzujú právo cenzúry odkazov, komentárov príp. súborov, ktoré by svojou povahou mohli byt v rozpore zo zákonmi a dobrými mravmi. Dodrzujte pravidlá!





    0
    eva5

    Clen
    21/06/2017 15.03.21
    Uploader
    21/06/2017 08.50.27
    Chybička se vloudila Nestahujte jestli to chcete i s původním zněním. Anglický zvuk se nějak zašmodrchal Ale stejně budu nahazovat komplet a věřte, že už se tak neseknu  
    Uploader
    19/06/2017 06.21.18
    Dobrá tedy. Vidím že je celkem zájem. Tohle byl jen test jestli to někdo chce nebo zná Pracuju na dalších dílech a nahodím pak komplet


    Back

    Na serveru se nenalézají zádne soubory. Za odkazy jsou výhradně zodpovědní uzivatelé a návstěvníci tohoto trackeru. Administrátor není zodpovědný za pridaný obsah ani za skody zpusobené uzivateli. Rozsirovat stránku nebo její obsah bez souhlasu ownera je zakázano. Nesmíte pouzívat tuto webovou stránku pro distribuovaní nebo download zádného materiálu pokud nemáte povolení od príslusného vlastníka práv. Uzivatelé jsou zodpovědní za dodrzování těchto pravidel a podmínek. Owner má právo kdykoliv změnit pravidla tohoto trackeru.

    [ Script trval: 0.026 sec. ] - [ GZIP: enabled ]
    BtiTracker (1.4.8) by Btiteam
    Je zhruba 20:23

    TOPlist