Tvoj účet nieje VIP.
Preto sú tvoje funkcie a možnosti značne obmedzené.
Pre aktiváciu VIP klikni sem.

Sk - CzTorrent Tracker - Dr. Bex und sein Team Teil 2 (2007)[DVDRIP][.AVI]

Nový Cz-SkTorrent open Tracker, na volné zdielanie súborov. Pridajte sa k nasej komunite a získajte pristup k tisícom torrentov.

  • vysoká rýchlost
  • úplne zdarma
  • prevazne Slovenska a Ceska scena
  • Vitaj Guest (Login) Ako stahovat
    torrenty?
    Torrenty:
    v1 textová
    v2 obrázková
    v3 online filmy
    Ako sa stat
    Uploaderom
    Online
    Filmy
    Forum
    Pravidlá
    BitTorrent
    klient
    Meno: Heslo:
    Zaregistrovat
    Po zaregistrovaní mozte volne stahovat
    Zabudol som heslo

    Torrent's details
    Dr. Bex und sein Team Teil 2 (2007)[DVDRIP][.AVI] Názov:Dr. Bex und sein Team Teil 2 (2007)[DVDRIP][.AVI] Hodnocení:
    Pozriet Online
    Kategória:xXx Velikost:939.6 MB BitTorrent klient
    Pridaný: Súbory: Bitlet Download
    Skontrolován:11/01/2017 Peerov:0 (Seed: 0, Leech: 0) torrent2exe Down
    Zaner: Uploader:Uvidis, az ked budes
    VIP
    Kúp nám Pivo 1,10€

    Kúp nám Pivo
    Podporte nas na Facebooku !
    Pridaj do zalozky
    Pridaj do zalozky




    Dr. Bex und sein Team Teil 2 (2007)[DVDRIP][.AVI]

    Screen:

    http://picfox.org/share-BBD2_58760102.html

    http://picfox.org/share-9E81_58760102.html

    http://picfox.org/share-D7C9_58760102.html

    http://picfox.org/share-AC25_58760102.html

    http://picfox.org/share-92B6_58760102.html

    COVER:

    http://picfox.org/share-2E05_58760102.html

    File Size: 682 MB | Resolution: 480x352 | Duration: 01:22:14 | Format: avi

    Year: 2006
    Genre: All Sex, Oral, Anal, Straight, Group Sex
    Playtime: 01:22:14

    Director: BEX Television

    Description: If there were ever a perfect place to work, this is it! Dr. Bex and his team of doctors and nurses get down and dirty in the office--this isn't your normal work day! The pants and panties come off and stay off as the doctors, patients and nurses swap bodily fluids and keep each other hot!!!

    Quality: DVDRip
    Video: MPEG-4 Visual (XviD), 640×480, 25.000 FPS, 1500 kb/s
    Audio: MP3, 44.1 kHz, 2 channels, Joint stereo, 128 kb/s

    Format : AVI
    Format/Info : Audio Video Interleave
    File size : 940 MiB
    Duration : 1h 19mn
    Overall bit rate : 1 644 Kbps

    Video
    ID : 0
    Format : MPEG-4 Visual
    Format profile : Simple@L3
    Format settings, BVOP : No
    Format settings, QPel : No
    Format settings, GMC : No warppoints
    Format settings, Matrix : Default (H.263)
    Codec ID : XVID
    Codec ID/Hint : XviD
    Duration : 1h 19mn
    Bit rate : 1 500 Kbps
    Width : 640 pixels
    Height : 480 pixels
    Display aspect ratio : 4:3
    Frame rate : 25.000 fps
    Color space : YUV
    Chroma subsampling : 4:2:0
    Bit depth : 8 bits
    Scan type : Progressive
    Compression mode : Lossy
    Bits/(Pixel*Frame) : 0.195
    Stream size : 857 MiB (91%)
    Writing library : XviD 1.2.1 (UTC 2008-12-04)

    Audio
    ID : 1
    Format : MPEG Audio
    Format version : Version 1
    Format profile : Layer 3
    Mode : Joint stereo
    Mode extension : MS Stereo
    Codec ID : 55
    Codec ID/Hint : MP3
    Duration : 1h 19mn
    Bit rate mode : Constant
    Bit rate : 128 Kbps
    Channel(s) : 2 channels
    Sampling rate : 44.1 KHz
    Compression mode : Lossy
    Stream size : 73.1 MiB (8%)
    Alignment : Aligned on interleaves
    Interleave, duration : 26 ms (0.65 video frame)
    Writing library : LAME3.98









    Upozornenie:
    Ziadny zo zobrazených súborov sa nenachádza na tomto serveri. Server slúzi len k síreniu vlastnorucne vytvorených aplikácií, videí, hudby ai. Autori stránok nenesú ziadnu zodpovednost za zverejnené odkazy, komentáre a obsah súborov. Vsetky komentáre, odkazy, súbory ktoré by svojou povahou mohli byt v rozpore zo zákonmi sem vkladáte na vlastnú zodpovednost. Autori stránok si vyhradzujú právo cenzúry odkazov, komentárov príp. súborov, ktoré by svojou povahou mohli byt v rozpore zo zákonmi a dobrými mravmi. Dodrzujte pravidlá!


    No comments...


    Back

    Na serveru se nenalézají zádne soubory. Za odkazy jsou výhradně zodpovědní uzivatelé a návstěvníci tohoto trackeru. Administrátor není zodpovědný za pridaný obsah ani za skody zpusobené uzivateli. Rozsirovat stránku nebo její obsah bez souhlasu ownera je zakázano. Nesmíte pouzívat tuto webovou stránku pro distribuovaní nebo download zádného materiálu pokud nemáte povolení od príslusného vlastníka práv. Uzivatelé jsou zodpovědní za dodrzování těchto pravidel a podmínek. Owner má právo kdykoliv změnit pravidla tohoto trackeru.

    [ Script trval: 0.241 sec. ] - [ GZIP: enabled ]
    BtiTracker (1.4.8) by Btiteam
    Je zhruba 17:47

    TOPlist