Tvoj účet nieje VIP.
Preto sú tvoje funkcie a možnosti značne obmedzené.
Pre aktiváciu VIP klikni sem.

Komisar Rex / Kommissar Rex - 2. serie (CZ) = CSFD 43% | SkTorrent.eu

Cz-SkTorrent open Tracker, na volné zdielanie súborov. Pridajte sa k nasej komunite a získajte pristup k tisícom torrentov.

  • vysoká rýchlost
  • úplne zdarma
  • prevazne Slovenska a Ceska scena
  • ste tu s nami uz 5 rokov - Dakujeme
  • Vitaj Guest (Login) Ako stahovat
    torrenty?
    Torrenty:
    v1 textová
    v2 obrázková
    v3 online filmy
    Ako sa stat
    Uploaderom
    Online
    Filmy
    Forum
    Pravidlá
    BitTorrent
    klient
    pruzinky
    Meno: Heslo:
    Zaregistrovat
    Po zaregistrovaní mozte volne stahovat
    Zabudol som heslo

    Torrent's details
    Komisar Rex / Kommissar Rex - 2. serie (CZ) = CSFD 43% Názov:Komisar Rex / Kommissar Rex - 2. serie (CZ) = CSFD 43% Hodnocení:N/A Stiahnut
    Pozriet Online
    Kategória:Seriál Velikost:5.5 GB BitTorrent klient
    Pridaný: Súbory:
    Skontrolován:2020-05-31 Peerov:1 (Seed: 1, Leech: 0)
    Zaner:Akcni,Krimi,Mysteriozni Uploader:Uvidis, az ked budes
    VIP
    Kúp nám Pivo 1,10€

    Kúp nám Pivo
    Podporte nas na Facebooku !
    Pridaj do zalozky
    Pridaj do zalozky






    Krimi / Akční / Mysteriózní
    Jazyk:CZ
    Původ: Rakousko / Německo / Itálie
    Rok: 1995-1996
    Délka: 11 h 15 min
    Odkaz na CSFD: https://www.csfd.cz/film/90311-komisar-rex/602423-serie-2/komentare/
    Obsah:
    Představit si vídeňskou kriminální policii bez komisaře Rexe je to samé jako chtít si nepředstavit pod pojmem Rakousko žádné kriminálky. Kdy by neznal německého ovčáka (za všechny série si ho zahráli 2 psi), člena týmu oddělení vražd pod vedením komisaře Mosera (Brandtnera, Herzogové, Hoffmana), kteří spolu s Rexem jeden po druhém brání spravedlnost ve svém okolí, často za nasazení vlastních životů? Psí představitel Rexe (Reginald von Ravenhorst) je jedním z nejznámějších zvířecích hrdinů vůbec (spolu s Lassie, Černým hřebcem, lvicí Elsou ad.) a pokud hledáte pohodový seriál pro nedělní odpoledne, určitě nebudete zklamaní.

    Epizody: 

  • Němé výkřiky (S02E01)
  • Stopy po krvi (S02E02)
  • Vražedné léto (S02E03)
  • Smrtící svádění (S02E04)
  • Maskovaná smrt (S02E05)
  • Slepá svědkyně (S02E06)
  • Nebezpečný lov (S02E07)
  • Smrt dítěte (S02E08)
  • Ve znamení Satana (S02E09)
  • Vůně smrti (S02E10)
  • Únos (S02E11)
  • Smrtelná dávka (S02E12)
  • Tři vteřiny do smrti (S02E13)
  • Nad střechami Vídně (S02E14)
  • Stockiho poslední případ (S02E15)

    Media info:
    Hlavní
    Celý název a cesta                       : C:\A filmy\Komisář REX Série 2\Komisar Rex S02E01 Neme vykriky.avi
    Formát                                   : AVI
    Formát/Info                              : Audio Video Interleave
    Velikost souboru                         : 305 MiB
    Duration                                 : 47 min 13 s
    Overall bit rate mode                    : Variable
    Celkový BitRate                          : 903 kb/s
    Použitý software                         : MEncoder Sherpya-SVN-r25962-4.2.3
    Enkódoval                                : MPlayer

    Video
    ID                                       : 0
    Formát                                   : MPEG-4 Visual
    Format profile                           : Simple@L3
    Format settings, BVOP                    : Ne
    Format settings, QPel                    : Ne
    Format settings, GMC                     : No warppoints
    Format settings, Matrix                  : Default (H.263)
    Codec ID                                 : XVID
    Codec ID/Hint                            : XviD
    Duration                                 : 47 min 13 s
    Bit rate                                 : 769 kb/s
    Šířka                                    : 720pixely
    Výška                                    : 576pixely
    Poměr stran                              : 4:3
    Original display aspect ratio            : 5:4
    Frame rate                               : 25,000 FPS
    Standard                                 : PAL
    Color space                              : YUV
    Chroma subsampling                       : 4:2:0
    Bit depth                                : 8 bits
    Scan type                                : Progressive
    Compression mode                         : Lossy
    Bits/(Pixel*Frame)                       : 0.074
    Stream size                              : 260 MiB (85%)
    Enkódoval                                : XviD 1.1.2 (UTC 2006-11-01)

    Audio
    ID                                       : 1
    Formát                                   : MPEG Audio
    Format version                           : Version 1
    Format profile                           : Layer 3
    Format settings                          : Joint stereo / MS Stereo
    Codec ID                                 : 55
    Codec ID/Hint                            : MP3
    Duration                                 : 47 min 13 s
    Bit rate mode                            : Variable
    Bit rate                                 : 122 kb/s
    Kanál(y)                                 : 2 kanály
    Sampling rate                            : 44,1 kHz
    Compression mode                         : Lossy
    Stream size                              : 41,1 MiB (13%)
    Alignment                                : Aligned on interleaves
    Interleave, duration                     : 26  ms (0,65 video frame)
    Interleave, preload duration             : 548  ms

    Screen:











    + Pridaj vlastnu verziu tohto torrentu +


  • Upozornenie:
    Ziadny zo zobrazených súborov sa nenachádza na tomto serveri. Server slúzi len k síreniu vlastnorucne vytvorených aplikácií, videí, hudby ai. Autori stránok nenesú ziadnu zodpovednost za zverejnené odkazy, komentáre a obsah súborov. Vsetky komentáre, odkazy, súbory ktoré by svojou povahou mohli byt v rozpore zo zákonmi sem vkladáte na vlastnú zodpovednost. Autori stránok si vyhradzujú právo cenzúry odkazov, komentárov príp. súborov, ktoré by svojou povahou mohli byt v rozpore zo zákonmi a dobrými mravmi. Dodrzujte pravidlá!





    0
    petr500
    Ratio 72.05

    Member+

    31/05/2020 17.43.50
    ahoj upe nahodiš v takove kvalitě a velikosti všechny serie


    --------------
    >> 31/05/2020 17.55.14
    UPLOADER:  


    --------------
    >> 31/05/2020 17.55.41
    UPLOADER: Pomale postupně nahodím.


    Back

    Na serveru se nenalézají zádne soubory. Za odkazy jsou výhradně zodpovědní uzivatelé a návstěvníci tohoto trackeru. Administrátor není zodpovědný za pridaný obsah ani za skody zpusobené uzivateli. Rozsirovat stránku nebo její obsah bez souhlasu ownera je zakázano. Nesmíte pouzívat tuto webovou stránku pro distribuovaní nebo download zádného materiálu pokud nemáte povolení od príslusného vlastníka práv. Uzivatelé jsou zodpovědní za dodrzování těchto pravidel a podmínek. Owner má právo kdykoliv změnit pravidla tohoto trackeru.

    [ Script trval: 0.023 sec. ] - [ GZIP: enabled ]
    BtiTracker (1.4.8) by Btiteam
    Je zhruba 08:05

    TOPlist