Tvoj účet nieje VIP.
Preto sú tvoje funkcie a možnosti značne obmedzené.
Pre aktiváciu VIP klikni sem.

Kung-fu narez (1979) CZ = CSFD 75% | SkTorrent.eu

Cz-SkTorrent open Tracker, na volné zdielanie súborov. Pridajte sa k nasej komunite a získajte pristup k tisícom torrentov.

  • vysoká rýchlost
  • úplne zdarma
  • prevazne Slovenska a Ceska scena
  • ste tu s nami uz 5 rokov - Dakujeme
  • Vitaj Guest (Login) Ako stahovat
    torrenty?
    Torrenty:
    v1 textová
    v2 obrázková
    v3 online filmy
    Ako sa stat
    Uploaderom
    Online
    Filmy
    Forum
    Pravidlá
    BitTorrent
    klient
    pruzinky
    Meno: Heslo:
    Zaregistrovat
    Po zaregistrovaní mozte volne stahovat
    Zabudol som heslo

    Torrent's details
    Kung-fu narez (1979) CZ = CSFD 75% Názov:Kung-fu narez (1979) CZ = CSFD 75% Hodnocení: Stiahnut
    Pozriet Online
    Kategória:Filmy CZ/SK dabing Velikost:1.6 GB BitTorrent klient
    Pridaný: Súbory:
    Skontrolován:2019-07-10 Peerov:17 (Seed: 17, Leech: 0)
    Zaner:Akcni Uploader:Uvidis, az ked budes
    VIP
    Kúp nám Pivo 1,10€

    Kúp nám Pivo
    Podporte nas na Facebooku !
    Pridaj do zalozky
    Pridaj do zalozky








    Jazyk: 2.0 cz
    Dĺžka: 1h 44 min
    Rok vydania: Hong Kong, 1979, 108 min
    Video: XviD
    Format: AVI
    Titulky: nie
    Žáner: Akčný




    Řezník Wing se zaplete do konfliktu s panem Ko, mistrem školy Pěti draků. Mistr je přesvědčený, že Wing zabil jeho kmotřenku. Vůbec netuší, že za vším stojí jeho syn Tai-Hoi, který pomocí všemožných intrik svalil vinu na Winga. Wing musí dokázat svou nevinu a pomstít smrt svého bratra, kterého nezavraždil nikdo jiný než Tai-Hoi. I když si diváci stýskají, že film vlastně nemá scénář, je údajně plný všech možných škol kung-fu, skvělé choreografie, precizních soubojů a tudíž mu není co vytýkat.




    General
    Complete name: C:\Users\hrebi\Desktop\moje torrenty\Kung-fu nářez (1979).avi
    Format: AVI
    Format/Info: Audio Video Interleave
    Format profile: OpenDML
    File size: 1.61 GiB
    Duration: 1 h 44 min
    Overall bi: Kung_Fu_narez
    Writing application: MEncoder 5.0


    Video
    ID: 0
    Format: MPEG-4 Visual
    Format profile: Advanced Simple@L5
    Format settings: BVOP2
    Format settings, BVOP: 2
    Format settings, QPel: No
    Format settings, GMC: No warppoints
    Format settings, Matrix: Default (H.263)
    Codec ID: XVID
    Codec ID/Hint: XviD
    Duration: 1 h 44 min
    Bit rate: 1 983 kb/s
    Width: 720 pixels
    Height: 406 pixels
    Display aspect ratio: 16:9
    Original display aspect ratio: 16:9
    Frame rate: 25.000 FPS
    Color space: YUV
    Chroma subsampling: 4:2:0
    Bit depth: 8 bits
    Scan type: Progressive
    Compression mode: Lossy
    Bits/(Pixel*Frame): 0.271
    Stream size: 1.44 GiB (90%)
    Writing library: XviD 63

    Audio
    ID: 1
    Format: AC-3
    Format/Info: Audio Coding 3
    Commercial name: Dolby Digital
    Codec ID: 2000
    Duration: 1 h 44 min
    Bit rate mode: Constant
    Bit rate: 224 kb/s
    Channel(s): 2 channels
    Channel layout: L R
    Sampling rate: 48.0 kHz
    Frame rate: 31.250 FPS (1536 SPF)
    Bit depth: 16 bits
    Compression mode: Lossy
    Delay relative to video: 40 ms
    Stream size: 167 MiB (10%)
    Alignment: Split accross interleaves
    Interleave, duration: 500  ms (12.50 video frames)
    Interleave, preload duration: 500  ms
    Service kind: Complete Main







    + Pridaj vlastnu verziu tohto torrentu +


    Upozornenie:
    Ziadny zo zobrazených súborov sa nenachádza na tomto serveri. Server slúzi len k síreniu vlastnorucne vytvorených aplikácií, videí, hudby ai. Autori stránok nenesú ziadnu zodpovednost za zverejnené odkazy, komentáre a obsah súborov. Vsetky komentáre, odkazy, súbory ktoré by svojou povahou mohli byt v rozpore zo zákonmi sem vkladáte na vlastnú zodpovednost. Autori stránok si vyhradzujú právo cenzúry odkazov, komentárov príp. súborov, ktoré by svojou povahou mohli byt v rozpore zo zákonmi a dobrými mravmi. Dodrzujte pravidlá!




    Uploader
    10/07/2019 12.12.34
    Odpovedat

    ked mate este tipy na nejake kungu starsie filmy povedzte hodim ich tu


    Back

    Na serveru se nenalézají zádne soubory. Za odkazy jsou výhradně zodpovědní uzivatelé a návstěvníci tohoto trackeru. Administrátor není zodpovědný za pridaný obsah ani za skody zpusobené uzivateli. Rozsirovat stránku nebo její obsah bez souhlasu ownera je zakázano. Nesmíte pouzívat tuto webovou stránku pro distribuovaní nebo download zádného materiálu pokud nemáte povolení od príslusného vlastníka práv. Uzivatelé jsou zodpovědní za dodrzování těchto pravidel a podmínek. Owner má právo kdykoliv změnit pravidla tohoto trackeru.

    [ Script trval: 0.041 sec. ] - [ GZIP: enabled ]
    BtiTracker (1.4.8) by Btiteam
    Je zhruba 19:04

    TOPlist