Tvoj účet nieje VIP.
Preto sú tvoje funkcie a možnosti značne obmedzené.
Pre aktiváciu VIP klikni sem.

Sk - CzTorrent Tracker - Les Cocus Vicelards (2016)[DVDRIP][.MP4]

Nový Cz-SkTorrent open Tracker, na volné zdielanie súborov. Pridajte sa k nasej komunite a získajte pristup k tisícom torrentov.

  • vysoká rýchlost
  • úplne zdarma
  • prevazne Slovenska a Ceska scena
  • Vitaj Guest (Login) Ako stahovat
    torrenty?
    Torrenty:
    v1 textová
    v2 obrázková
    v3 online filmy
    Ako sa stat
    Uploaderom
    Online
    Filmy
    Forum
    Pravidlá
    BitTorrent
    klient
    Meno: Heslo:
    Zaregistrovat
    Po zaregistrovaní mozte volne stahovat
    Zabudol som heslo

    Torrent's details
    Les Cocus Vicelards (2016)[DVDRIP][.MP4] Názov:Les Cocus Vicelards (2016)[DVDRIP][.MP4] Hodnocení:
    Pozriet Online
    Kategória:xXx Velikost:836.4 MB BitTorrent klient
    Pridaný: Súbory: Bitlet Download
    Skontrolován:11/01/2017 Peerov:0 (Seed: 0, Leech: 0) torrent2exe Down
    Zaner: Uploader:Uvidis, az ked budes
    VIP
    Kúp nám Pivo 1,10€

    Kúp nám Pivo
    Podporte nas na Facebooku !
    Pridaj do zalozky
    Pridaj do zalozky




    Les Cocus Vicelards (2016)[DVDRIP][.MP4]

    Screen:

    http://picfox.org/share-92D8_58763C4A.html

    http://picfox.org/share-BC03_58763C4A.html

    http://picfox.org/share-3AE3_58763C4A.html

    http://picfox.org/share-B572_58763C4A.html

    http://picfox.org/share-511E_58763C4A.html

    COVER:

    http://picfox.org/share-BCB9_58763C4A.html

    File Size: 836 MB | Resolution: 1024x576 | Duration: 01:00:42 | Format: mp4

    Year: 2016
    Genre: All Sex, Cuckold, Interracial, Big Dicks (Big Cocks), Oral, Anal, Straight, Stockings
    Playtime: 01:00:42
    Starring: Cathy, Linda Ray, Teo Cabrera, Joachim Kessef
    Description: Que certains maris prennent leur pied en matant leur femme se faire baiser, pourquoi pas… Mais attention car voici 2 époux très vicelards dont le plaisir est de voir leur femme se faire enculer par une énorme bite de black à la seule condition qu’ils puissent ensuite avaler le sperme bien chaud que l’amant aura déchargé dans le cul de madame. Vous trouvez que c’est un fantasme normal ça ?
    Quality: DVDRip
    Video: AVC, 1024×576, 50.000 FPS, 1790 kb/s
    Audio: AAC LC, 48.0 kHz, 2 channels, 123 kb/s  

    Format : MPEG-4
    Format profile : Base Media / Version 2
    Codec ID : mp42
    File size : 836 MiB
    Duration : 1h 0mn
    Overall bit rate : 1 926 Kbps
    Movie name : Les cocus vicelards
    Encoded date : UTC 2016-12-16 10:41:52
    Tagged date : UTC 2016-12-16 10:51:18

    Video
    ID : 1
    Format : AVC
    Format/Info : Advanced Video Codec
    Format profile : Baseline@L3.0
    Format settings, CABAC : No
    Format settings, ReFrames : 1 frame
    Format settings, GOP : M=1, N=25
    Muxing mode : Container profile=Baseline@4.1
    Codec ID : avc1
    Codec ID/Info : Advanced Video Coding
    Duration : 1h 0mn
    Bit rate : 1 790 Kbps
    Width : 1 024 pixels
    Height : 576 pixels
    Display aspect ratio : 16:9
    Frame rate mode : Constant
    Frame rate : 50.000 fps
    Color space : YUV
    Chroma subsampling : 4:2:0
    Bit depth : 8 bits
    Scan type : Progressive
    Bits/(Pixel*Frame) : 0.061
    Stream size : 777 MiB (93%)
    Language : French

    Audio
    ID : 2
    Format : AAC
    Format/Info : Advanced Audio Codec
    Format profile : LC
    Codec ID : 40
    Duration : 1h 0mn
    Bit rate mode : Constant
    Bit rate : 123 Kbps
    Channel(s) : 2 channels
    Channel positions : Front: L R
    Sampling rate : 48.0 KHz
    Compression mode : Lossy
    Stream size : 53.4 MiB (6%)

    Text
    ID : 3
    Format : Apple text
    Codec ID : text
    Duration : 1h 0mn
    Bit rate : 0 bps
    Stream size : 23.0 Bytes (0%)
    Language : French









    Upozornenie:
    Ziadny zo zobrazených súborov sa nenachádza na tomto serveri. Server slúzi len k síreniu vlastnorucne vytvorených aplikácií, videí, hudby ai. Autori stránok nenesú ziadnu zodpovednost za zverejnené odkazy, komentáre a obsah súborov. Vsetky komentáre, odkazy, súbory ktoré by svojou povahou mohli byt v rozpore zo zákonmi sem vkladáte na vlastnú zodpovednost. Autori stránok si vyhradzujú právo cenzúry odkazov, komentárov príp. súborov, ktoré by svojou povahou mohli byt v rozpore zo zákonmi a dobrými mravmi. Dodrzujte pravidlá!


    No comments...


    Back

    Na serveru se nenalézají zádne soubory. Za odkazy jsou výhradně zodpovědní uzivatelé a návstěvníci tohoto trackeru. Administrátor není zodpovědný za pridaný obsah ani za skody zpusobené uzivateli. Rozsirovat stránku nebo její obsah bez souhlasu ownera je zakázano. Nesmíte pouzívat tuto webovou stránku pro distribuovaní nebo download zádného materiálu pokud nemáte povolení od príslusného vlastníka práv. Uzivatelé jsou zodpovědní za dodrzování těchto pravidel a podmínek. Owner má právo kdykoliv změnit pravidla tohoto trackeru.

    [ Script trval: 0.013 sec. ] - [ GZIP: enabled ]
    BtiTracker (1.4.8) by Btiteam
    Je zhruba 14:07

    TOPlist