Tvoj účet nieje VIP.
Preto sú tvoje funkcie a možnosti značne obmedzené.
Pre aktiváciu VIP klikni sem.

Nedotknutelni / Intouchables (2011)(CZ) = CSFD 91% | SkTorrent.eu

Cz-SkTorrent open Tracker, na volné zdielanie súborov. Pridajte sa k nasej komunite a získajte pristup k tisícom torrentov.

  • vysoká rýchlost
  • úplne zdarma
  • prevazne Slovenska a Ceska scena
  • ste tu s nami uz 5 rokov - Dakujeme
  • Vitaj Guest (Login) Ako stahovat
    torrenty?
    Torrenty:
    v1 textová
    v2 obrázková
    v3 online filmy
    Ako sa stat
    Uploaderom
    Online
    Filmy
    Forum
    Pravidlá
    BitTorrent
    klient
    pruzinky
    Meno: Heslo:
    Zaregistrovat
    Po zaregistrovaní mozte volne stahovat
    Zabudol som heslo

    Torrent's details
    Nedotknutelni / Intouchables (2011)(CZ) = CSFD 91% Názov:Nedotknutelni / Intouchables (2011)(CZ) = CSFD 91% Hodnocení: Stiahnut
    Pozriet Online
    Kategória:Filmy CZ/SK dabing Velikost:1.7 GB BitTorrent klient
    Pridaný: Súbory:
    Skontrolován:2014-05-18 Peerov:0 (Seed: 0, Leech: 0)
    Zaner:Drama,Komedie Uploader:Uvidis, az ked budes
    VIP
    Kúp nám Pivo 1,10€

    Kúp nám Pivo
    Podporte nas na Facebooku !
    Pridaj do zalozky
    Pridaj do zalozky




    Jazyk: CZ
    Titulky: Ne
    Délka: 112 minut
    Odkaz CSFD: http://www.csfd.cz/film/306731-nedotknutelni/
    CSFD: 91%




    Popis:
    Komedie / Drama / Životopisný
    Francie, 2011, 112 min

    Režie: Olivier Nakache, Eric Toledano
    Scénář: Olivier Nakache, Eric Toledano
    Hudba: Ludovico Einaudi
    Hrají: François Cluzet, Omar Sy, Anne Le Ny, Audrey Fleurot, Clotilde Mollet, Cyril Mendy, Emilie Caen, Sylvain Lazard, Benjamin Baroche


    OBSAH:
    Ochrnutý a bohatý aristokrat Philippe si za svého nového opatrovníka vybere Drisse, živelného mladíka z předměstí, kterého právě propustili z vězení. Jinými slovy - najde si na tuto práci tu nejméně vhodnou osobu. Podaří se jim však propojit nemožné: Vivaldiho a populární hudbu, serióznost a žoviální vtípky, luxusní obleky a tepláky. Bláznivým, zábavným, silným, neočekávaným a hlavně „nedotknutelným“, přesně takovým se stane jejich přátelství… Komedie s dramatickou zápletkou o tom, že ani od krku po prsty u nohou nepohyblivý člověk odkázaný na pomoc druhých, nemusí ztratit smysl života. A o tom, že i nejméně pravděpodobné spojení melancholického multimilionáře a extrovertního recidivisty může humorně zapůsobit na diváka a může se z něj stát kasovní trhák.





    Mediainfo:

    Quote:
    General
    Complete name                            : D:\FILMY\torrenty\Intouchables-Nedotknutelni.avi
    Format                                   : AVI
    Format/Info                              : Audio Video Interleave
    File size                                : 1.73 GiB
    Duration                                 : 1h 52mn
    Overall bit rate                         : 2 205 Kbps
    Writing application                      : VirtualDubMod 1.5.10.1 (build 2366/release)
    Writing library                          : VirtualDubMod build 2366/release

    Video
    ID                                       : 0
    Format                                   : MPEG-4 Visual
    Format profile                           : Advanced Simple@L5
    Format settings, BVOP                    : 2
    Format settings, QPel                    : No
    Format settings, GMC                     : No warppoints
    Format settings, Matrix                  : Default (H.263)
    Codec ID                                 : XVID
    Codec ID/Hint                            : XviD
    Duration                                 : 1h 52mn
    Bit rate                                 : 1 747 Kbps
    Width                                    : 720 pixels
    Height                                   : 384 pixels
    Display aspect ratio                     : 1.85:1
    Frame rate                               : 24.000 fps
    Color space                              : YUV
    Chroma subsampling                       : 4:2:0
    Bit depth                                : 8 bits
    Scan type                                : Progressive
    Compression mode                         : Lossy
    Bits/(Pixel*Frame)                       : 0.263
    Stream size                              : 1.37 GiB (79%)
    Writing library                          : XviD 1.2.1 (UTC 2008-12-04)

    Audio
    ID                                       : 1
    Format                                   : AC-3
    Format/Info                              : Audio Coding 3
    Mode extension                           : CM (complete main)
    Format settings, Endianness              : Big
    Codec ID                                 : 2000
    Duration                                 : 1h 52mn
    Bit rate mode                            : Constant
    Bit rate                                 : 448 Kbps
    Channel(s)                               : 6 channels
    Channel positions                        : Front: L C R, Side: L R, LFE
    Sampling rate                            : 48.0 KHz
    Bit depth                                : 16 bits
    Compression mode                         : Lossy
    Delay relative to video                  : 6ms
    Stream size                              : 359 MiB (20%)
    Alignment                                : Split accross interleaves
    Interleave, duration                     : 42 ms (1.00 video frame)
    Interleave, preload duration             : 500 ms







    Upozornenie:
    Ziadny zo zobrazených súborov sa nenachádza na tomto serveri. Server slúzi len k síreniu vlastnorucne vytvorených aplikácií, videí, hudby ai. Autori stránok nenesú ziadnu zodpovednost za zverejnené odkazy, komentáre a obsah súborov. Vsetky komentáre, odkazy, súbory ktoré by svojou povahou mohli byt v rozpore zo zákonmi sem vkladáte na vlastnú zodpovednost. Autori stránok si vyhradzujú právo cenzúry odkazov, komentárov príp. súborov, ktoré by svojou povahou mohli byt v rozpore zo zákonmi a dobrými mravmi. Dodrzujte pravidlá!





    -1
    ZdendaLG
    Ratio 0



    02/10/2013 20.39.47
    Odpovedat

    SEED je zhruba od 15:30 aľ do cca 6:30 následujícího dne, pak je přestávka do těch cca 15:30. Víkend non-stop.


    Back

    Na serveru se nenalézají zádne soubory. Za odkazy jsou výhradně zodpovědní uzivatelé a návstěvníci tohoto trackeru. Administrátor není zodpovědný za pridaný obsah ani za skody zpusobené uzivateli. Rozsirovat stránku nebo její obsah bez souhlasu ownera je zakázano. Nesmíte pouzívat tuto webovou stránku pro distribuovaní nebo download zádného materiálu pokud nemáte povolení od príslusného vlastníka práv. Uzivatelé jsou zodpovědní za dodrzování těchto pravidel a podmínek. Owner má právo kdykoliv změnit pravidla tohoto trackeru.

    [ Script trval: 0.028 sec. ] - [ GZIP: enabled ]
    BtiTracker (1.4.8) by Btiteam
    Je zhruba 08:31

    TOPlist