Tvoj účet nieje VIP.
Preto sú tvoje funkcie a možnosti značne obmedzené.
Pre aktiváciu VIP klikni sem.

Rodice na tahu / Drunk Parents (2019)(CZ) = CSFD 32% | SkTorrent.eu

Cz-SkTorrent open Tracker, na volné zdielanie súborov. Pridajte sa k nasej komunite a získajte pristup k tisícom torrentov.

  • vysoká rýchlost
  • úplne zdarma
  • prevazne Slovenska a Ceska scena
  • ste tu s nami uz 5 rokov - Dakujeme
  • Vitaj Guest (Login) Ako stahovat
    torrenty?
    Torrenty:
    v1 textová
    v2 obrázková
    v3 online filmy
    Ako sa stat
    Uploaderom
    Online
    Filmy
    Forum
    Pravidlá
    BitTorrent
    klient
    pruzinky
    Meno: Heslo:
    Zaregistrovat
    Po zaregistrovaní mozte volne stahovat
    Zabudol som heslo

    Torrent's details
    Rodice na tahu / Drunk Parents (2019)(CZ) = CSFD 32% Názov:Rodice na tahu / Drunk Parents (2019)(CZ) = CSFD 32% Hodnocení: Stiahnut
    Pozriet Online
    Kategória:HD Filmy Velikost:1.3 GB BitTorrent klient
    Pridaný: Súbory:
    Skontrolován:2019-09-01 Peerov:25 (Seed: 25, Leech: 0)
    Zaner:Komedie Uploader:Uvidis, az ked budes
    VIP
    Kúp nám Pivo 1,10€

    Kúp nám Pivo
    Podporte nas na Facebooku !
    Pridaj do zalozky
    Pridaj do zalozky







    Originalny nazev: Drunk Parents
    Prelozeny nazev: Rodiče na tahu
    Rok vydani: 2018
    Delka: 97 min


    Odkaz na csfd: https://www.csfd.cz/film/439143-rodice-na-tahu/prehled/
    Odkaz na imdb: https://www.imdb.com/title/tt5037840/combined


    Žáner: Komedie

    Krajina: USA

    Réžia: Fred Wolf

    Herci: (Alec Baldwin - ), (Salma Hayek - ), Jim Gaffigan, Joe Manganiello, Treat Williams, Michelle Veintimilla, Natalia Cigliuti, Ben Platt, Olivia Luccardi, Sasha Mitchell, Kid Cudi, Aimee Mullins, Stephen Gevedon, Gibson Frazier, Meg Wolf, Kelly AuCoin, JoJo Kushner, Dan Soder, Frank Anello, Brian Donahue

    Hodnotenie: 34%

    Frank a Nancy v podání důstojného Aleca Baldwina a svůdné Salmy Hayek jsou manželský pár příjemně střední třídy, s domem, prostorným naleštěným autem a s dcerou, kterou právě zanechali v prvním ročníku na univerzitní koleji. Do jejich výbavy spokojeného života patří i to, že si občas přihnou, ale ruku na srdce - kdo ne. Pak se ovšem nečekaně a ze dne na den ocitnou úplně na mizině. Jasně se shodnou na dvou věcech: milovanou dceru musí na drahé škole udržet stůj co stůj a nikdo se nic nesmí dozvědět. Jen je potřeba vymyslet, jak na to. Otevřou si tedy láhev a noc strávená pitím jim přinese do života spoustu otřesných nápadů. Například plán tajně pronajmout sousedův prázdný dům, na který mají dohlížet. Plán rychle přinese slušnou hotovost, ale jinak je samozřejmě zcela šílený a nemůže dobře dopadnout. Obzvlášť pokud dům pronajmete oficiálně registrovanému sexuálnímu predátorovi pod dozorem. Rodiče na tahu pak začnou vytloukat klín klínem, vršit jeden špatný nápad za druhým, až se jim všechny katastrofy vymknou kontrole.(Bontonfilm)



    Code
    Format                      : Matroska
    Format version              : Version 2
    File size                   : 1.33 GiB
    Duration                    : 1 h 37 min
    Overall bit rate            : 1 968 kb/s
    Movie name                  : Drunk.Parents.2019.BDRiP.x264.DD2.0.HUN-GS88
    Encoded date                : UTC 2019-08-31 13:40:41
    Writing application         : mkvmerge v34.0.0 ('Sight and Seen') 64-bit
    Writing library             : libebml v1.3.7 + libmatroska v1.5.0

    Video
    ID                          : 1
    Format                      : AVC
    Format/Info                 : Advanced Video Codec
    Format profile              : High@L4.1
    Format settings             : CABAC / 16 Ref Frames
    Format settings, CABAC      : Yes
    Format settings, Reference  : 16 frames
    Codec ID                    : V_MPEG4/ISO/AVC
    Duration                    : 1 h 37 min
    Bit rate                    : 1 532 kb/s
    Width                       : 720 pixels
    Height                      : 388 pixels
    Display aspect ratio        : 1.85:1
    Frame rate mode             : Constant
    Frame rate                  : 23.976 (24000/1001) FPS
    Color space                 : YUV
    Chroma subsampling          : 4:2:0
    Bit depth                   : 8 bits
    Scan type                   : Progressive
    Bits/(Pixel*Frame)          : 0.229
    Stream size                 : 1.03 GiB (77%)


    Language                    : Hungarian
    Default                     : Yes
    Forced                      : Yes
    Color range                 : Limited
    Matrix coefficients         : BT.709

    Audio
    ID                          : 2
    Format                      : AC-3
    Format/Info                 : Audio Coding 3
    Commercial name             : Dolby Digital
    Codec ID                    : A_AC3
    Duration                    : 1 h 37 min
    Bit rate mode               : Constant
    Bit rate                    : 448 kb/s
    Channel(s)                  : 6 channels
    Channel layout              : L R C LFE Ls Rs
    Sampling rate               : 48.0 kHz
    Frame rate                  : 31.250 FPS (1536 SPF)
    Bit depth                   : 16 bits
    Compression mode            : Lossy
    Stream size                 : 311 MiB (23%)
    Language                    : Czech
    Service kind                : Complete Main
    Default                     : Yes
    Forced                      : No

    Text
    ID                          : 3
    Format                      : UTF-8
    Codec ID                    : S_TEXT/UTF8
    Codec ID/Info               : UTF-8 Plain Text
    Duration                    : 40 min 5 s
    Bit rate                    : 0 b/s
    Count of elements           : 5
    Stream size                 : 167 Bytes (0%)
    Title                       : forced
    Language                    : Czech
    Default                     : Yes
    Forced                      : Yes

    Menu
    00:00:00.000                : en:Chapter 01
    00:13:19.340                : en:Chapter 02
    00:26:02.478                : en:Chapter 03
    00:38:53.540                : en:Chapter 04
    00:52:10.878                : en:Chapter 05
    01:05:11.658                : en:Chapter 06
    01:17:33.274                : en:Chapter 07
    01:30:34.888                : en:Chapter 08




    ONLINE




    Upozornenie:
    Ziadny zo zobrazených súborov sa nenachádza na tomto serveri. Server slúzi len k síreniu vlastnorucne vytvorených aplikácií, videí, hudby ai. Autori stránok nenesú ziadnu zodpovednost za zverejnené odkazy, komentáre a obsah súborov. Vsetky komentáre, odkazy, súbory ktoré by svojou povahou mohli byt v rozpore zo zákonmi sem vkladáte na vlastnú zodpovednost. Autori stránok si vyhradzujú právo cenzúry odkazov, komentárov príp. súborov, ktoré by svojou povahou mohli byt v rozpore zo zákonmi a dobrými mravmi. Dodrzujte pravidlá!





    1

    Ratio 0

    Clen

    01/09/2019 14.45.19
    Proč to neustále posouváš dopředu jakej to má význam ?


    Back

    Na serveru se nenalézají zádne soubory. Za odkazy jsou výhradně zodpovědní uzivatelé a návstěvníci tohoto trackeru. Administrátor není zodpovědný za pridaný obsah ani za skody zpusobené uzivateli. Rozsirovat stránku nebo její obsah bez souhlasu ownera je zakázano. Nesmíte pouzívat tuto webovou stránku pro distribuovaní nebo download zádného materiálu pokud nemáte povolení od príslusného vlastníka práv. Uzivatelé jsou zodpovědní za dodrzování těchto pravidel a podmínek. Owner má právo kdykoliv změnit pravidla tohoto trackeru.

    [ Script trval: 0.023 sec. ] - [ GZIP: enabled ]
    BtiTracker (1.4.8) by Btiteam
    Je zhruba 17:51

    TOPlist