Tvoj účet nieje VIP.
Preto sú tvoje funkcie a možnosti značne obmedzené.
Pre aktiváciu VIP klikni sem.

Sk - CzTorrent Tracker - Stosstrupp X Rated (2000)[DVDRIP][.WMV]

Nový Cz-SkTorrent open Tracker, na volné zdielanie súborov. Pridajte sa k nasej komunite a získajte pristup k tisícom torrentov.

  • vysoká rýchlost
  • úplne zdarma
  • prevazne Slovenska a Ceska scena
  • Vitaj Guest (Login) Ako stahovat
    torrenty?
    Torrenty:
    v1 textová
    v2 obrázková
    v3 online filmy
    Ako sa stat
    Uploaderom
    Online
    Filmy
    Forum
    Pravidlá
    BitTorrent
    klient
    Meno: Heslo:
    Zaregistrovat
    Po zaregistrovaní mozte volne stahovat
    Zabudol som heslo

    Torrent's details
    Stosstrupp X Rated (2000)[DVDRIP][.WMV] Názov:Stosstrupp X Rated (2000)[DVDRIP][.WMV] Hodnocení:
    Pozriet Online
    Kategória:xXx Velikost:1.3 GB BitTorrent klient
    Pridaný: Súbory: Bitlet Download
    Skontrolován:11/01/2017 Peerov:1 (Seed: 1, Leech: 0) torrent2exe Down
    Zaner: Uploader:Uvidis, az ked budes
    VIP
    Kúp nám Pivo 1,10€

    Kúp nám Pivo
    Podporte nas na Facebooku !
    Pridaj do zalozky
    Pridaj do zalozky




    Stosstrupp X Rated (2000)[DVDRIP][.WMV]

    Screen:

    http://blobopics.biz/share-FCA7_58760F94.html

    http://blobopics.biz/share-48B4_58760F94.html

    http://blobopics.biz/share-D1DC_58760F94.html

    http://blobopics.biz/share-7E65_58760F94.html

    http://blobopics.biz/share-8967_58760F94.html

    COVER:

    http://blobopics.biz/share-CF71_58760F94.html

    File Size: 1,27 GB | Resolution: 640x480 | Duration: 01:19:13 | Format: wmv

    Year: 2000
    Genre: All Sex, Oral, Anal, Straight, Group Sex, Double Penetration, Triple Penetration
    Playtime: 01:19:13

    Director: Dolly Buster

    Starring: Alina Grey, Timea Touch, Tunde Dorgen (as Aline Mercier), Lidia (as Gabi Tramper), Silvie Raz (as Jodie Marengo), Rebecca Blonde (as Patty Pearl)

    Description: Jungs haben keine Chance in diese exclusive Vereinigung aufgenommen zu werden, den nur richtige Männer dürfen in den Stosstrupp ! Um diesen Club beizutreten, muss man einen animalischen Trieb besitzen und das Verlangen seinen Saft in möglichst viele Löcher zu schießen…

    Quality: DVDRip
    Format: WMV
    Video: VC-1 (WMV3), 640×480, 29.970 FPS, 2200 kb/s
    Audio: WMA, 44.1 kHz, 2 channels, 96.0 kb/s

    ormat : Windows Media
    File size : 1.28 GiB
    Duration : 1h 19mn
    Overall bit rate mode : Constant
    Overall bit rate : 2 312 Kbps
    Maximum Overall bit rate : 2 317 Kbps
    Recorded date : 2007
    Encoded date : UTC 2009-02-11 15:23:41.890
    Copyright : All Rights Reserved

    Video
    ID : 2
    Format : VC-1
    Format profile : MP@ML
    Codec ID : WMV3
    Codec ID/Info : Windows Media Video 9
    Codec ID/Hint : WMV3
    Description of the codec : Windows Media Video 9 - Professional
    Duration : 1h 19mn
    Bit rate mode : Constant
    Bit rate : 2 200 Kbps
    Width : 640 pixels
    Height : 480 pixels
    Display aspect ratio : 4:3
    Frame rate : 29.970 fps
    Bit depth : 8 bits
    Scan type : Progressive
    Compression mode : Lossy
    Bits/(Pixel*Frame) : 0.239
    Stream size : 1.22 GiB (95%)
    Language : English (US)

    Audio
    ID : 1
    Format : WMA
    Format version : Version 2
    Codec ID : 161
    Codec ID/Info : Windows Media Audio
    Description of the codec : Windows Media Audio 9.2 - 96 kbps, 44 kHz, stereo 2-pass CBR
    Duration : 1h 19mn
    Bit rate mode : Constant
    Bit rate : 96.0 Kbps
    Channel(s) : 2 channels
    Sampling rate : 44.1 KHz
    Bit depth : 16 bits
    Stream size : 54.4 MiB (4%)









    Upozornenie:
    Ziadny zo zobrazených súborov sa nenachádza na tomto serveri. Server slúzi len k síreniu vlastnorucne vytvorených aplikácií, videí, hudby ai. Autori stránok nenesú ziadnu zodpovednost za zverejnené odkazy, komentáre a obsah súborov. Vsetky komentáre, odkazy, súbory ktoré by svojou povahou mohli byt v rozpore zo zákonmi sem vkladáte na vlastnú zodpovednost. Autori stránok si vyhradzujú právo cenzúry odkazov, komentárov príp. súborov, ktoré by svojou povahou mohli byt v rozpore zo zákonmi a dobrými mravmi. Dodrzujte pravidlá!


    No comments...


    Back

    Na serveru se nenalézají zádne soubory. Za odkazy jsou výhradně zodpovědní uzivatelé a návstěvníci tohoto trackeru. Administrátor není zodpovědný za pridaný obsah ani za skody zpusobené uzivateli. Rozsirovat stránku nebo její obsah bez souhlasu ownera je zakázano. Nesmíte pouzívat tuto webovou stránku pro distribuovaní nebo download zádného materiálu pokud nemáte povolení od príslusného vlastníka práv. Uzivatelé jsou zodpovědní za dodrzování těchto pravidel a podmínek. Owner má právo kdykoliv změnit pravidla tohoto trackeru.

    [ Script trval: 0.012 sec. ] - [ GZIP: enabled ]
    BtiTracker (1.4.8) by Btiteam
    Je zhruba 12:50

    TOPlist