Tvoj účet nieje VIP.
Preto sú tvoje funkcie a možnosti značne obmedzené.
Pre aktiváciu VIP klikni sem.

Sk-CzTorrent | stiahni si HD Filmy online - Utek z New Yorku / Escape from New York (1981)(CZ/EN)

Nový Cz-SkTorrent open Tracker, na volné zdielanie súborov. Pridajte sa k nasej komunite a získajte pristup k tisícom torrentov.

  • vysoká rýchlost
  • úplne zdarma
  • prevazne Slovenska a Ceska scena
  • Vitaj Guest (Login) Ako stahovat
    torrenty?
    Torrenty:
    v1 textová
    v2 obrázková
    v3 online filmy
    Ako sa stat
    Uploaderom
    Online
    Filmy
    Forum
    Pravidlá
    BitTorrent
    klient
    Meno: Heslo:
    Zaregistrovat
    Po zaregistrovaní mozte volne stahovat
    Zabudol som heslo

    Torrent's details
    Utek z New Yorku / Escape from New York (1981)(CZ/EN) Názov:Utek z New Yorku / Escape from New York (1981)(CZ/EN) Hodnocení:
    Pozriet Online
    Kategória:Filmy DVD Velikost:4.4 GB BitTorrent klient
    Pridaný: Súbory: Bitlet Download
    Skontrolován:2017-06-18 19:41:54 Peerov:0 (Seed: 0, Leech: 0) torrent2exe Down
    Zaner:Akcni,Dobrodruzny,Sci-Fi,Thriller Uploader:Uvidis, az ked budes
    VIP
    Kúp nám Pivo 1,10€

    Kúp nám Pivo
    Podporte nas na Facebooku !
    Pridaj do zalozky
    Pridaj do zalozky








    Délka: 95 minut 
    Jazyk: DD 5.1 CZ, EN 
    Titulky: CZ 
    Menu a bonusy: ANO/NE  
    Rok vydání: 1981
    Žánr: Akční / Dobrodružný / Sci-Fi / Thriller 



    Obsah:
    Newyorský poloostrov Manhattan se stává obrovským vězením nenapravitelných zločinců a vyvrhelů, světem se svými vlastními zákony odkud není úniku. Sem se zřítí letadlo s prezidentem USA (DONALD PLEASENCE), který pád přežije a stává se nedobrovolným rukojmím těchto šílenců. Na jeho záchranu se vydává Snake Plisken (KURT RUSSEL), který je zkušeným válečným veteránem. Začíná nebezpečná záchranná mise... Tento kultovní Carpenterův sci-fi snímek patří k základním titulům skupiny filmů, které líčí pochmurnou vizi blízké buduocnosti.


    Mediainfo:


    General 
    Complete name: F:\Stahování\DVD\Útěk z New Yorku\VIDEO_TS\VTS_02_1.VOB 
    Format: MPEG-PS 
    File size: 1 024 MiB 
    Duration: 22mn 20s 
    Overall bit rate mode: Variable 
    Overall bit rate: 6 410 Kbps 
    Writing library: BitVice MPEG2 Encoder Vn 1.3.3 PPC G4 (c) 2003 Innobits AB 

    Video 
    ID: 224 (0xE0) 
    Format: MPEG Video 
    Format version: Version 2 
    Format profile: Main@Main 
    Format settings, BVOP: Yes 
    Format settings, Matrix: Custom 
    Format settings, GOP: M=3, N=12 
    Duration: 22mn 20s 
    Bit rate mode: Variable 
    Bit rate: 5 451 Kbps 
    Maximum bit rate: 8 132 Kbps 
    Width: 720 pixels 
    Height: 576 pixels 
    Display aspect ratio: 16:9 
    Frame rate: 25.000 fps 
    Standard: PAL 
    Color space: YUV 
    Chroma subsampling: 4:2:0 
    Bit depth: 8 bits 
    Scan type: Progressive 
    Scan order: Bottom Field First 
    Compression mode: Lossy 
    Bits/(Pixel*Frame): 0.526 
    Time code of first frame: 00:00:00:00 
    Time code source: Group of pictures header 
    GOP, Open/Closed: Closed 
    Stream size: 871 MiB (85%) 
    Writing library: BitVice MPEG2 Encoder Vn 1.3.3 PPC G4 (c) 2003 Innobits AB 
    Color primaries: BT.601 PAL 
    Transfer characteristics: BT.470 System B, BT.470 System G 
    Matrix coefficients: BT.601 

    Audio #1 
    ID: 189 (0xBD)-128 (0x80) 
    Format: AC-3 
    Format/Info: Audio Coding 3 
    Mode extension: CM (complete main) 
    Format settings, Endianness: Big 
    Muxing mode: DVD-Video 
    Duration: 22mn 19s 
    Bit rate mode: Constant 
    Bit rate: 384 Kbps 
    Channel(s): 6 channels 
    Channel positions: Front: L C R, Side: L R, LFE 
    Sampling rate: 48.0 KHz 
    Compression mode: Lossy 
    Stream size: 61.3 MiB (6%) 

    Audio #2 
    ID: 189 (0xBD)-129 (0x81) 
    Format: AC-3 
    Format/Info: Audio Coding 3 
    Mode extension: CM (complete main) 
    Format settings, Endianness: Big 
    Muxing mode: DVD-Video 
    Duration: 22mn 19s 
    Bit rate mode: Constant 
    Bit rate: 448 Kbps 
    Channel(s): 6 channels 
    Channel positions: Front: L C R, Side: L R, LFE 
    Sampling rate: 48.0 KHz 
    Compression mode: Lossy 
    Stream size: 71.6 MiB (7%) 

    Text #1 
    ID: 189 (0xBD)-32 (0x20) 
    Format: RLE 
    Format/Info: Run-length encoding 
    Muxing mode: DVD-Video 
    Delay relative to video: 2s 40ms 

    Text #2 
    ID: 189 (0xBD)-33 (0x21) 
    Format: RLE 
    Format/Info: Run-length encoding 
    Muxing mode: DVD-Video 
    Duration: 22mn 17s 
    Delay relative to video: 2s 40ms








    + Pridaj vlastnu verziu tohto torrentu +


    Upozornenie:
    Ziadny zo zobrazených súborov sa nenachádza na tomto serveri. Server slúzi len k síreniu vlastnorucne vytvorených aplikácií, videí, hudby ai. Autori stránok nenesú ziadnu zodpovednost za zverejnené odkazy, komentáre a obsah súborov. Vsetky komentáre, odkazy, súbory ktoré by svojou povahou mohli byt v rozpore zo zákonmi sem vkladáte na vlastnú zodpovednost. Autori stránok si vyhradzujú právo cenzúry odkazov, komentárov príp. súborov, ktoré by svojou povahou mohli byt v rozpore zo zákonmi a dobrými mravmi. Dodrzujte pravidlá!


    No comments...


    Back

    Na serveru se nenalézají zádne soubory. Za odkazy jsou výhradně zodpovědní uzivatelé a návstěvníci tohoto trackeru. Administrátor není zodpovědný za pridaný obsah ani za skody zpusobené uzivateli. Rozsirovat stránku nebo její obsah bez souhlasu ownera je zakázano. Nesmíte pouzívat tuto webovou stránku pro distribuovaní nebo download zádného materiálu pokud nemáte povolení od príslusného vlastníka práv. Uzivatelé jsou zodpovědní za dodrzování těchto pravidel a podmínek. Owner má právo kdykoliv změnit pravidla tohoto trackeru.

    [ Script trval: 0.039 sec. ] - [ GZIP: enabled ]
    BtiTracker (1.4.8) by Btiteam
    Je zhruba 19:24

    TOPlist