Tvoj účet nieje VIP.
Preto sú tvoje funkcie a možnosti značne obmedzené.
Pre aktiváciu VIP klikni sem.

| SkTorrent.eu

Cz-SkTorrent open Tracker, na volné zdielanie súborov. Pridajte sa k nasej komunite a získajte pristup k tisícom torrentov.

  • vysoká rýchlost
  • úplne zdarma
  • prevazne Slovenska a Ceska scena
  • ste tu s nami uz 5 rokov - Dakujeme
  • Vitaj Guest (Login) Ako stahovat
    torrenty?
    Torrenty:
    v1 textová
    v2 obrázková
    v3 online filmy
    Ako sa stat
    Uploaderom
    Online
    Filmy
    Forum
    Pravidlá
    BitTorrent
    klient
    Meno: Heslo:
    Zaregistrovat
    Po zaregistrovaní mozte volne stahovat
    Zabudol som heslo

    Torrent's details
    Kobra 11 - 11. série CZ / Alarm für Cobra 11 - Die Autobahnpolizei = CSFD 48% Názov:Kobra 11 - 11. série CZ / Alarm für Cobra 11 - Die Autobahnpolizei = CSFD 48% Hodnocení:N/A Stiahnut
    Pozriet Online
    Kategória:Seriál Velikost:5.2 GB BitTorrent klient
    Pridaný: Súbory:
    Skontrolován:2021-07-30 Peerov:4 (Seed: 4, Leech: 0)
    Zaner:Akcni,Drama,Krimi Uploader:Uvidis, az ked budes
    VIP
    Kúp nám Pivo 1,10€

    Kúp nám Pivo
    Podporte nas na Facebooku !
    Pridaj do zalozky
    Pridaj do zalozky




    Jazyk: CZ
    Titulky: NE
    CSFD: https://www.csfd.cz/film/112550-kobra-11/646310-serie-11/prehled/
    wikipedia: https://cs.wikipedia.org/wiki/Kobra_11

    Akční / Krimi / Drama
    Německo, 2007, 9 h 41 min (Minutáž: 40–91 min)

    Režie: Axel Barth, Heinz Dietz, Axel Sand, Sebastian Vigg
    Scénář: Jan Martin Scharf, Arne Nolting, Michael Krause, Elke Schilling, Horst Wieschen, Lorenz Stassen, Ralf Ruland, Christian Heider (méně)
    Kamera: Axel Sand, Claus Peter Hildenbrand
    Hudba: Nik Reich
    Hrají: René Steinke, Joachim Dietmar Mues, Gedeon Burkhard, Martina Hill, Erdogan Atalay, Linda Chang, Thomas Huber, Gabriel Merz, Christian Redl, Charlotte Schwab, Dietmar Huhn, Erdal Kacar, Kerstin Thielemann, Frank Stieren, Henry Horn, Paul Faßnacht, Daniela Wutte, Robert Gallinowski, Gottfried Vollmer, Felix Vörtler, Hans Brückner, Niels Kurvin, Morgan Domingos, Tom Wlaschiha, Marcus Mittermeier, Nina Bott, Nils Nelleßen, Anne Cathrin Buhtz, Carina N. Wiese, Martin Lindow, Jim Boeven, Ludwig Blochberger, Guntram Brattia, Thomas Lawinky, Eva Meier, Haluk Piyes, Alexander Strobele, Patrick Gräser, Daniel Fehlow, Ellenie Salvo González, Martin Brambach, Benjamin Felix Meyer, Alexander Beyer, Marco Girnth, Vasilis Spiliopoulos, Klaus-Dieter Klebsch, Eckhard Preuß, Esther Esche, Georg Prang, Johanna Gastdorf, Dirk Mühlbach, Sabrina White, Thure Riefenstein, Niels-Bruno Schmidt, Ralph Herforth, Lars Löllmann, Laura Osswald, Oli Bigalke, Aline Hochscheid, Felix Lampe-Jovanovic, Ulrich Lenk, Chi Le (méně)
    Produkce: Stefan Retzbach
    Střih: Martin Rahner, Henk Drees, Martin Habig
    Scénografie: Paul Margono
    (méně profesí)

    Jejich revírem je dálnice, jejich tempo vražedné, jejich soupeři jsou zloději aut, vrazi, vyděrači ...

    Media info:

    Hlavní
    Celý název a cesta                       : C:\Users\Desktop\11. série\1 - Na život a na smrt (část 1).avi
    Formát                                   : AVI
    Formát/Info                              : Audio Video Interleave
    Velikost souboru                         : 455 MiB
    Duration                                 : 44 min 40 s
    Celkový BitRate                          : 1 423 kb/s
    Použitý software                         : MEncoder dev-CVS-060101-18:59-4.0.2
    Enkódoval                                : MPlayer

    Video
    ID                                       : 0
    Formát                                   : MPEG-4 Visual
    Format profile                           : Simple@L1
    Format settings, BVOP                    : Ne
    Format settings, QPel                    : Ne
    Format settings, GMC                     : No warppoints
    Format settings, Matrix                  : Default (H.263)
    Codec ID                                 : DIVX
    Codec ID/Info                            : Project Mayo
    Codec ID/Hint                            : DivX 4
    Duration                                 : 44 min 40 s
    Bit rate                                 : 1 285 kb/s
    Šířka                                    : 544pixely
    Výška                                    : 400pixely
    Poměr stran                              : 4:3
    Frame rate                               : 25,000 FPS
    Color space                              : YUV
    Chroma subsampling                       : 4:2:0
    Bit depth                                : 8 bits
    Scan type                                : Progressive
    Compression mode                         : Lossy
    Bits/(Pixel*Frame)                       : 0.236
    Stream size                              : 410 MiB (90%)
    Enkódoval                                : Lavc51.0.0

    Audio
    ID                                       : 1
    Formát                                   : AC-3
    Formát/Info                              : Audio Coding 3
    Commercial name                          : Dolby Digital
    Codec ID                                 : 2000
    Duration                                 : 44 min 40 s
    Bit rate mode                            : Constant
    Bit rate                                 : 128 kb/s
    Kanál(y)                                 : 2 kanály
    Channel layout                           : L R
    Sampling rate                            : 48,0 kHz
    Frame rate                               : 31,250 FPS (1536 SPF)
    Compression mode                         : Lossy
    Stream size                              : 40,9 MiB (9%)
    Alignment                                : Aligned on interleaves
    Interleave, duration                     : 32  ms (0,80 video frame)
    Interleave, preload duration             : 512  ms
    Service kind                             : Complete Main

    Seznam epizod 11. série

    1 - Na život a na smrt (část 1)
    1 - Na život a na smrt (část 2)
    2 - V nejlepším úmyslu
    3 - Přízraky minulosti
    4 - Hodina pravdy
    5 - Státní návladní
    6 - V moci únosců
    7 - Parťáci
    8 - Vina a trest
    9 - Rodinná záležitost
    10 - Smrtelní nepřátelé
    11 - Proti všem pravidlům









    + Pridaj vlastnu verziu tohto torrentu +


    Upozornenie:
    Ziadny zo zobrazených súborov sa nenachádza na tomto serveri. Server slúzi len k síreniu vlastnorucne vytvorených aplikácií, videí, hudby ai. Autori stránok nenesú ziadnu zodpovednost za zverejnené odkazy, komentáre a obsah súborov. Vsetky komentáre, odkazy, súbory ktoré by svojou povahou mohli byt v rozpore zo zákonmi sem vkladáte na vlastnú zodpovednost. Autori stránok si vyhradzujú právo cenzúry odkazov, komentárov príp. súborov, ktoré by svojou povahou mohli byt v rozpore zo zákonmi a dobrými mravmi. Dodrzujte pravidlá!


    No comments...


    Back

    Na serveru se nenalézají zádne soubory. Za odkazy jsou výhradně zodpovědní uzivatelé a návstěvníci tohoto trackeru. Administrátor není zodpovědný za pridaný obsah ani za skody zpusobené uzivateli. Rozsirovat stránku nebo její obsah bez souhlasu ownera je zakázano. Nesmíte pouzívat tuto webovou stránku pro distribuovaní nebo download zádného materiálu pokud nemáte povolení od príslusného vlastníka práv. Uzivatelé jsou zodpovědní za dodrzování těchto pravidel a podmínek. Owner má právo kdykoliv změnit pravidla tohoto trackeru.

    [ Script trval: 0.020 sec. ] - [ GZIP: enabled ]
    Je zhruba 23:43
    neviem

    TOPlist