Tvoj účet nieje VIP.
Preto sú tvoje funkcie a možnosti značne obmedzené.
Pre aktiváciu VIP klikni sem.

Zelezna srdce / Fury (2014)(CZ)[1080p] = CSFD 76% | SkTorrent.eu

Cz-SkTorrent open Tracker, na volné zdielanie súborov. Pridajte sa k nasej komunite a získajte pristup k tisícom torrentov.

  • vysoká rýchlost
  • úplne zdarma
  • prevazne Slovenska a Ceska scena
  • ste tu s nami uz 5 rokov - Dakujeme
  • Vitaj Guest (Login) Ako stahovat
    torrenty?
    Torrenty:
    v1 textová
    v2 obrázková
    Ako sa stat
    Uploaderom
    Online
    Filmy
    Forum
    Pravidlá
    BitTorrent
    klient
    Meno: Heslo:
    Zaregistrovat
    Po zaregistrovaní mozte volne stahovat
    Zabudol som heslo

    Zelezna srdce / Fury (2014)(CZ)[1080p]  = CSFD 76% Názov:Zelezna srdce / Fury (2014)(CZ)[1080p] = CSFD 76% Hodnocení:N/A Stiahnut
    Pozriet Online
    Kategória:HD Filmy Velikost:16.1 GB BitTorrent klient
    Pridaný: Súbory:
    Skontrolován:2022-09-20 Peerov:5 (Seed: 5, Leech: 0)
    Zaner:Akcni,Drama,Valecny Uploader:Uvidis, az ked budes
    VIP
    Kúp nám Pivo 1,10€

    Kúp nám Pivo
    Pridaj do zalozky
    Pridaj do zalozky




    https://www.csfd.cz/film/339501-zelezna-srdce/prehled/

    Duben 1945. Zatímco se spojenecká armáda pokouší o finální ofenzívu na evropské frontě, ujímá se válečný veterán, armádní seržant Wardaddy ((Brad Pitt - )), velení tanku Sherman a vydává se s jeho pětičlennou posádkou na vražednou misi v týlu nepřítele. Tváří v tvář přesile početní i palebné a v doprovodu naprostého zelenáče, který se v jejich četě souhrou okolností ocitl, je Wardaddy se svými muži nucen získat navzdory veškeré pravděpodobnosti štěstí na svou stranu a dovést do úspěšného konce své hrdinské pokusy zaútočit na samotné srdce nacistického Německa.  



    Format : Matroska
    Format version : Version 4 / Version 2
    File size : 16.1 GiB
    Duration : 2h 14mn
    Overall bit rate : 17.1 Mbps
    Encoded date : UTC 2017-03-09 00:50:47
    Writing application : mkvmerge v8.6.1 ('Flying') 64bit
    Writing library : libebml v1.3.3 + libmatroska v1.4.4
    DURATION : 02:14:18.800000000
    NUMBER_OF_FRAMES : 1473
    NUMBER_OF_BYTES : 38486
    _STATISTICS_WRITING_APP : mkvmerge v8.6.1 ('Flying') 64bit
    _STATISTICS_WRITING_DATE_UTC : 2017-03-09 00:50:47
    _STATISTICS_TAGS : BPS DURATION NUMBER_OF_FRAMES NUMBER_OF_BYTES

    Video
    ID : 1
    Format : AVC
    Format/Info : Advanced Video Codec
    Format profile : High@L4.1
    Format settings, CABAC : Yes
    Format settings, ReFrames : 5 frames
    Codec ID : V_MPEG4/ISO/AVC
    Duration : 2h 14mn
    Bit rate : 16.5 Mbps
    Width : 1 920 pixels
    Height : 804 pixels
    Display aspect ratio : 2.40:1
    Frame rate mode : Constant
    Frame rate : 23.976 fps
    Color space : YUV
    Chroma subsampling : 4:2:0
    Bit depth : 8 bits
    Scan type : Progressive
    Bits/(Pixel*Frame) : 0.446
    Stream size : 15.2 GiB (94%)
    Title : Fury.2014.1080p.BluRay.DTS.x264.CZ-TreZzoR
    Writing library : x264 core 144 r2525kMod 40bb568
    Encoding settings : cabac=1 / ref=5 / deblock=1:-3:-3 / analyse=0x3:0x133 / me=tesa / subme=11 / psy=1 / fade_compensate=0.00 / psy_rd=1.00:1.00 / mixed_ref=1 / me_range=32 / chroma_me=1 / trellis=2 / 8x8dct=1 / cqm=0 / deadzone=21,11 / fast_pskip=0 / chroma_qp_offset=-4 / threads=12 / lookahead_threads=2 / sliced_threads=0 / nr=0 / decimate=1 / interlaced=0 / bluray_compat=0 / constrained_intra=0 / fgo=0 / bframes=8 / b_pyramid=2 / b_adapt=2 / b_bias=0 / direct=3 / weightb=1 / open_gop=0 / weightp=2 / keyint=250 / keyint_min=23 / scenecut=40 / intra_refresh=0 / rc_lookahead=0 / rc=2pass / mbtree=0 / bitrate=16500 / ratetol=1.0 / qcomp=0.65 / qpmin=0 / qpmax=69 / qpstep=4 / cplxblur=20.0 / qblur=0.5 / vbv_maxrate=50000 / vbv_bufsize=62500 / nal_hrd=none / filler=0 / ip_ratio=1.00 / pb_ratio=1.00 / aq=1:0.65 / zones=938,1250,b=1.5/2659,11395,b=1.6/4003,11395,b=2/19932,19979,b=2.3/29363,29615,b=2.1/30622,30653,b=1.9/40153,40236,b=1.7/44797,44855,b=3.1/46045,46110,b=1.8/46273,46349,b=1.8/47425,47484,b=2.0/50967,51363,b=2.6/52668,52781,b=1.6/62294,62434,b=2/63223,63327,b=2.5/66534,66593,b=2/67546,67696,b=2.7/89426,90708,b=2.4/106131,107607,b=1.7/108123,108187,b=2/108701,109112,b=2.5/113442,114044,b=1.8/115455,115534,b=2.1/115707,115776,b=1.7/117855,117923,b=1.6/118682,118871,b=2/119222,119380,b=2.5/119579,119803,b=1.6/120064,120126,b=2.2/120319,120351,b=2.1/120807,120869,b=2.3/121586,124146,b=1.3/126931,127985,b=2/130005,130116,b=2.2/140699,140827,b=1.5/143155,143218,b=1.5/144064,144150,b=1.8/147858,148059,b=2.2/149063,177409,b=2.6/184808,193680,b=0.15
    Language : English
    Default : Yes
    Forced : No
    DURATION : 02:14:38.070000000
    NUMBER_OF_FRAMES : 193680
    NUMBER_OF_BYTES : 16620405031
    _STATISTICS_WRITING_APP : mkvmerge v8.6.1 ('Flying') 64bit
    _STATISTICS_WRITING_DATE_UTC : 2017-03-09 00:50:47
    _STATISTICS_TAGS : BPS DURATION NUMBER_OF_FRAMES NUMBER_OF_BYTES

    Audio
    ID : 2
    Format : AC-3
    Format/Info : Audio Coding 3
    Mode extension : CM (complete main)
    Format settings, Endianness : Big
    Codec ID : A_AC3
    Duration : 2h 14mn
    Bit rate mode : Constant
    Bit rate : 640 Kbps
    Channel(s) : 6 channels
    Channel positions : Front: L C R, Side: L R, LFE
    Sampling rate : 48.0 KHz
    Bit depth : 16 bits
    Compression mode : Lossy
    Stream size : 616 MiB (4%)
    Title : DD5.1
    Language : Czech
    Default : Yes
    Forced : No

    Text #1
    ID : 3
    Format : UTF-8
    Codec ID : S_TEXT/UTF8
    Codec ID/Info : UTF-8 Plain Text
    Title : forced
    Language : Czech
    Default : Yes
    Forced : Yes

    Text #2
    ID : 4
    Format : UTF-8
    Codec ID : S_TEXT/UTF8
    Codec ID/Info : UTF-8 Plain Text
    Language : Czech
    Default : No
    Forced : No

    Menu
    00:00:00.000 : en:00:00:00.000
    00:07:58.228 : en:00:07:58.228
    00:20:24.682 : en:00:20:24.682
    00:26:38.931 : en:00:26:38.931
    00:37:26.035 : en:00:37:26.035
    00:43:24.060 : en:00:43:24.060
    00:51:59.408 : en:00:51:59.408
    01:01:20.302 : en:01:01:20.302
    01:13:46.547 : en:01:13:46.547
    01:18:29.705 : en:01:18:29.705
    01:26:21.802 : en:01:26:21.802
    01:29:50.427 : en:01:29:50.427
    01:35:39.192 : en:01:35:39.192
    01:48:12.111 : en:01:48:12.111
    01:57:49.980 : en:01:57:49.980
    02:00:41.609 : en:02:00:41.609

     


    CZ dabing









    pihjzgff, engelpetr93, HL,

    + Pridaj vlastnu verziu tohto torrentu +


    Upozornenie:
    Ziadny zo zobrazených súborov sa nenachádza na tomto serveri. Server slúzi len k síreniu vlastnorucne vytvorených aplikácií, videí, hudby ai. Autori stránok nenesú ziadnu zodpovednost za zverejnené odkazy, komentáre a obsah súborov. Vsetky komentáre, odkazy, súbory ktoré by svojou povahou mohli byt v rozpore zo zákonmi sem vkladáte na vlastnú zodpovednost. Autori stránok si vyhradzujú právo cenzúry odkazov, komentárov príp. súborov, ktoré by svojou povahou mohli byt v rozpore zo zákonmi a dobrými mravmi. Dodrzujte pravidlá!


    No comments...


    Back

    Na serveru se nenalézají zádne soubory. Za odkazy jsou výhradně zodpovědní uzivatelé a návstěvníci tohoto trackeru. Administrátor není zodpovědný za pridaný obsah ani za skody zpusobené uzivateli. Nesmíte pouzívat tuto webovou stránku pro distribuovaní nebo download zádného materiálu pokud nemáte povolení od príslusného vlastníka práv. Uzivatelé jsou zodpovědní za dodrzování těchto pravidel a podmínek. Owner má právo kdykoliv změnit pravidla tohoto trackeru.

    [ Script trval: 0.023 sec. ] - [ GZIP: enabled ]
    Je zhruba 23:27
    sql

    TOPlist