Tvoj účet nieje VIP.
Preto sú tvoje funkcie a možnosti značne obmedzené.
Pre aktiváciu VIP klikni sem.

The Guardians of Justice / Strazci spravedlnosti (S01)(2022)(Hevc)(1080p)(HDR)(10bit)(WebDL)(Atmos-EN-DE-PL)(CZtit+MultiSub) = CSFD 48% | SkTorrent.eu

Cz-SkTorrent open Tracker, na volné zdieľanie súborov. Pridajte sa k našej komunite a získajte prístup k tisícom torrentov.

  • vysoká rýchlosť
  • úplne zdarma
  • prevažne Slovenská a Česká scéna
  • ste tu s nami už 10 rokov - Ďakujeme
  • Vitaj Guest (Login) Ako stahovat
    torrenty?
    Torrenty:
    v1 textová
    v2 obrázková
    Ako sa stat
    Uploaderom
    Online
    Filmy
    Forum
    Pravidlá
    SkTSocial
    BitTorrent
    klient
    Meno: Heslo:
    Zaregistrovat
    Po zaregistrovaní mozte volne stahovat
    Zabudol som heslo

    The Guardians of Justice / Strazci spravedlnosti (S01)(2022)(Hevc)(1080p)(HDR)(10bit)(WebDL)(Atmos-EN-DE-PL)(CZtit+MultiSub) = CSFD 48% Názov:The Guardians of Justice / Strazci spravedlnosti (S01)(2022)(Hevc)(1080p)(HDR)(10bit)(WebDL)(Atmos-EN-DE-PL)(CZtit+MultiSub) = CSFD 48% Hodnocení:N/A Stiahnut
    Pozriet Online
    Kategória:Seriál - Velikost:5.0 GB BitTorrent klient
    Pridaný: Súbory:
    Skontrolován:2023-01-30 Peerov:1 (Seed: 0, Leech: 1)
    Zaner:Akcni,Komedie,Sci-Fi,Thriller Uploader:Uvidis, az ked budes
    VIP
    Kúp nám Pivo 1,10€

    Kúp nám Pivo

    Pridaj do zalozky
    Pridaj do zalozky




    [center]







    Movie Name: The Guardians of Justice (S01)(2022)(Complete)(HDR)
    IMDb Rating: 5.0/10

    Quality: 1080p (WebDL)
    Language: E-AC-3 5.1 640kb/s - English , Polish , Germany
    Subtitles: Multi
    Director: Kenlon Clark, Adi Shankar
    Writers: Adi Shankar
    Genres: Action | Animation | Adventure |


    When their seemingly fearless leader self-destructs, a team of troubled superheroes must confront festering evil in the world - and in themselves.




    [/center]
    Format                                   : Matroska
    Format version                           : Version 4
    File size                                : 548 MiB
    Duration                                 : 21 min 47 s
    Overall bit rate                         : 3 512 kb/s
    Movie name                               : 1. kapitola: Byla to vražda, řekla!
    Description                              : Čtyřicet let potom, co se snesl z nebe a zachránil lidstvo, vyrazí Marvelous Man světu i Strážcům spravedlnosti dech svým výročním televizním projevem.
    Writing application                      : Lavf58.76.100
    Writing library                          : Lavf58.76.100
    ErrorDetectionType                       : Per level 1
    EPISODE_ID                               : 1
    SEASON_NUMBER                            : 1
    SHOW                                     : Strážci spravedlnosti

    Video
    ID                                       : 1
    Format                                   : HEVC
    Format/Info                              : High Efficiency Video Coding
    Format profile                           : Main 10@L4@Main
    HDR format                               : SMPTE ST 2086, HDR10 compatible
    Codec ID                                 : V_MPEGH/ISO/HEVC
    Duration                                 : 20 min 51 s
    Bit rate                                 : 754 kb/s
    Width                                    : 1 920 pixels
    Height                                   : 1 080 pixels
    Display aspect ratio                     : 16:9
    Frame rate mode                          : Constant
    Frame rate                               : 23.976 (24000/1001) FPS
    Color space                              : YUV
    Chroma subsampling                       : 4:2:0 (Type 2)
    Bit depth                                : 10 bits
    Bits/(Pixel*Frame)                       : 0.015
    Stream size                              : 112 MiB (21%)
    Writing library                          : HEVC Coding
    Default                                  : Yes
    Forced                                   : No
    Color range                              : Limited
    Color primaries                          : BT.2020
    Transfer characteristics                 : PQ
    Matrix coefficients                      : BT.2020 non-constant
    Mastering display color primaries        : Display P3
    Mastering display luminance              : min: 0.0001 cd/m2, max: 1000 cd/m2
    Maximum Content Light Level              : 1094 cd/m2
    Maximum Frame-Average Light Level        : 383 cd/m2
    VENDOR_ID                                : [0][0][0][0]

    Audio #1
    ID                                       : 2
    Format                                   : E-AC-3
    Format/Info                              : Enhanced AC-3
    Commercial name                          : Dolby Digital Plus
    Codec ID                                 : A_EAC3
    Duration                                 : 21 min 47 s
    Bit rate mode                            : Constant
    Bit rate                                 : 640 kb/s
    Channel(s)                               : 6 channels
    Channel layout                           : L R C LFE Ls Rs
    Sampling rate                            : 48.0 kHz
    Frame rate                               : 31.250 FPS (1536 SPF)
    Bit depth                                : 32 bits
    Compression mode                         : Lossy
    Stream size                              : 99.8 MiB (18%)
    Title                                    : němčina
    Language                                 : German
    Service kind                             : Complete Main
    Default                                  : No
    Forced                                   : No
    VENDOR_ID                                : [0][0][0][0]

    Audio #2
    ID                                       : 3
    Format                                   : E-AC-3
    Format/Info                              : Enhanced AC-3
    Commercial name                          : Dolby Digital Plus
    Codec ID                                 : A_EAC3
    Duration                                 : 21 min 47 s
    Bit rate mode                            : Constant
    Bit rate                                 : 640 kb/s
    Channel(s)                               : 6 channels
    Channel layout                           : L R C LFE Ls Rs
    Sampling rate                            : 48.0 kHz
    Frame rate                               : 31.250 FPS (1536 SPF)
    Bit depth                                : 32 bits
    Compression mode                         : Lossy
    Stream size                              : 99.8 MiB (18%)
    Title                                    : angličtina - Komentář audio stopy
    Language                                 : English
    Service kind                             : Complete Main
    Default                                  : Yes
    Forced                                   : No
    VENDOR_ID                                : [0][0][0][0]

    Audio #3
    ID                                       : 4
    Format                                   : E-AC-3 JOC
    Format/Info                              : Enhanced AC-3 with Joint Object Coding
    Commercial name                          : Dolby Digital Plus with Dolby Atmos
    Codec ID                                 : A_EAC3
    Duration                                 : 21 min 47 s
    Bit rate mode                            : Constant
    Bit rate                                 : 768 kb/s
    Channel(s)                               : 6 channels
    Channel layout                           : L R C LFE Ls Rs
    Sampling rate                            : 48.0 kHz
    Frame rate                               : 31.250 FPS (1536 SPF)
    Bit depth                                : 32 bits
    Compression mode                         : Lossy
    Stream size                              : 120 MiB (22%)
    Title                                    : angličtina [Originál]
    Language                                 : English
    Service kind                             : Complete Main
    Default                                  : No
    Forced                                   : No
    VENDOR_ID                                : [0][0][0][0]
    Complexity index                         : 16
    Number of dynamic objects                : 15
    Bed channel count                        : 1 channel
    Bed channel configuration                : LFE

    Audio #4
    ID                                       : 5
    Format                                   : E-AC-3
    Format/Info                              : Enhanced AC-3
    Commercial name                          : Dolby Digital Plus
    Codec ID                                 : A_EAC3
    Duration                                 : 21 min 47 s
    Bit rate mode                            : Constant
    Bit rate                                 : 640 kb/s
    Channel(s)                               : 6 channels
    Channel layout                           : L R C LFE Ls Rs
    Sampling rate                            : 48.0 kHz
    Frame rate                               : 31.250 FPS (1536 SPF)
    Bit depth                                : 32 bits
    Compression mode                         : Lossy
    Stream size                              : 99.8 MiB (18%)
    Title                                    : polština
    Language                                 : Polish
    Service kind                             : Complete Main
    Default                                  : No
    Forced                                   : No
    VENDOR_ID                                : [0][0][0][0]

    Text #1
    ID                                       : 6
    Format                                   : UTF-8
    Codec ID                                 : S_TEXT/UTF8
    Codec ID/Info                            : UTF-8 Plain Text
    Duration                                 : 20 min 42 s
    Title                                    : čeština
    Writing library                          : Lavc58.134.100 srt
    Language                                 : Czech
    Default                                  : Yes
    Forced                                   : No

    Text #2
    ID                                       : 7
    Format                                   : UTF-8
    Codec ID                                 : S_TEXT/UTF8
    Codec ID/Info                            : UTF-8 Plain Text
    Duration                                 : 20 min 46 s
    Title                                    : German [ForcedNarrative]
    Writing library                          : Lavc58.134.100 srt
    Language                                 : German
    Default                                  : No
    Forced                                   : No

    Text #3
    ID                                       : 8
    Format                                   : UTF-8
    Codec ID                                 : S_TEXT/UTF8
    Codec ID/Info                            : UTF-8 Plain Text
    Duration                                 : 20 min 46 s
    Title                                    : němčina
    Writing library                          : Lavc58.134.100 srt
    Language                                 : German
    Default                                  : No
    Forced                                   : No

    Text #4
    ID                                       : 9
    Format                                   : UTF-8
    Codec ID                                 : S_TEXT/UTF8
    Codec ID/Info                            : UTF-8 Plain Text
    Duration                                 : 12 min 7 s
    Title                                    : English [ForcedNarrative]
    Writing library                          : Lavc58.134.100 srt
    Language                                 : English
    Default                                  : No
    Forced                                   : No

    Text #5
    ID                                       : 10
    Format                                   : UTF-8
    Codec ID                                 : S_TEXT/UTF8
    Codec ID/Info                            : UTF-8 Plain Text
    Duration                                 : 20 min 43 s
    Title                                    : angličtina [CC]
    Writing library                          : Lavc58.134.100 srt
    Language                                 : English
    Default                                  : No
    Forced                                   : No

    Text #6
    ID                                       : 11
    Format                                   : UTF-8
    Codec ID                                 : S_TEXT/UTF8
    Codec ID/Info                            : UTF-8 Plain Text
    Duration                                 : 20 min 42 s
    Title                                    : maďarština
    Writing library                          : Lavc58.134.100 srt
    Language                                 : Hungarian
    Default                                  : No
    Forced                                   : No

    Text #7
    ID                                       : 12
    Format                                   : UTF-8
    Codec ID                                 : S_TEXT/UTF8
    Codec ID/Info                            : UTF-8 Plain Text
    Duration                                 : 20 min 42 s
    Title                                    : Polish [ForcedNarrative]
    Writing library                          : Lavc58.134.100 srt
    Language                                 : Polish
    Default                                  : No
    Forced                                   : No

    Text #8
    ID                                       : 13
    Format                                   : UTF-8
    Codec ID                                 : S_TEXT/UTF8
    Codec ID/Info                            : UTF-8 Plain Text
    Duration                                 : 20 min 42 s
    Title                                    : polština
    Writing library                          : Lavc58.134.100 srt
    Language                                 : Polish
    Default                                  : No
    Forced                                   : No

    Text #9
    ID                                       : 14
    Format                                   : UTF-8
    Codec ID                                 : S_TEXT/UTF8
    Codec ID/Info                            : UTF-8 Plain Text
    Duration                                 : 20 min 42 s
    Title                                    : ukrajinština
    Writing library                          : Lavc58.134.100 srt
    Language                                 : Ukrainian
    Default                                  : No
    Forced                                   : No










    ROMANV1965, abbadc,

    + Pridaj vlastnu verziu tohto torrentu +


    Upozornenie:
    Ziadny zo zobrazených súborov sa nenachádza na tomto serveri. Server slúzi len k síreniu vlastnorucne vytvorených aplikácií, videí, hudby ai. Autori stránok nenesú ziadnu zodpovednost za zverejnené odkazy, komentáre a obsah súborov. Vsetky komentáre, odkazy, súbory ktoré by svojou povahou mohli byt v rozpore zo zákonmi sem vkladáte na vlastnú zodpovednost. Autori stránok si vyhradzujú právo cenzúry odkazov, komentárov príp. súborov, ktoré by svojou povahou mohli byt v rozpore zo zákonmi a dobrými mravmi. Dodrzujte pravidlá!





    0
    Tomisy
    Ratio 7.68

    Member+

    30/01/2023 21.37.07
    MŮŽE SE TO JEVIT JAKO BLBOST ALE NENÍ KDYSY SE TO SKOUKLO NA NETFLIX


    Back

    Na serveru se nenalézají zádne soubory. Za odkazy jsou výhradně zodpovědní uzivatelé a návstěvníci tohoto trackeru. Administrátor není zodpovědný za pridaný obsah ani za skody zpusobené uzivateli. Nesmíte pouzívat tuto webovou stránku pro distribuovaní nebo download zádného materiálu pokud nemáte povolení od príslusného vlastníka práv. Uzivatelé jsou zodpovědní za dodrzování těchto pravidel a podmínek. Owner má právo kdykoliv změnit pravidla tohoto trackeru.

    [ Script trval: 0.072 sec. ] - [ GZIP: enabled ]
    Je zhruba 17:03
    sql

    TOPlist