Tvoj čet nieje VIP.
Preto s tvoje funkcie a možnosti značne obmedzen.
Pre aktivciu VIP klikni sem.

GLOW - Nadherne zeny wrestlingu (S03)(2019)(1080p)(x264)(WebDL)(EN-DE-PL)(CZtit+MultiSUB) = CSFD 79% | SkTorrent.eu

Cz-SkTorrent open Tracker, na voln zdielanie sborov. Pridajte sa k nasej komunite a zskajte pristup k tiscom torrentov.

  • vysok rchlost
  • plne zdarma
  • prevazne Slovenska a Ceska scena
  • ste tu s nami uz 5 rokov - Dakujeme
  • Vitaj Guest (Login) Ako stahovat
    torrenty?
    Torrenty:
    v1 textov
    v2 obrzkov
    v3 online filmy
    Ako sa stat
    Uploaderom
    Online
    Filmy
    Forum
    Pravidl
    BitTorrent
    klient
    Meno: Heslo:
    Zaregistrovat
    Po zaregistrovan mozte volne stahovat
    Zabudol som heslo

    Torrent's details
    GLOW - Nadherne zeny wrestlingu (S03)(2019)(1080p)(x264)(WebDL)(EN-DE-PL)(CZtit+MultiSUB) = CSFD 79% Nzov:GLOW - Nadherne zeny wrestlingu (S03)(2019)(1080p)(x264)(WebDL)(EN-DE-PL)(CZtit+MultiSUB) = CSFD 79% Hodnocen:N/A Stiahnut
    Pozriet Online
    Kategria:Seril Velikost:7.9 GB BitTorrent klient
    Pridan: Sbory:
    Skontrolovn:2022-04-30 Peerov:0 (Seed: 0, Leech: 0)
    Zaner:Drama,Komedie,Sportovni Uploader:Uvidis, az ked budes
    VIP
    Kp nm Pivo 1,10€

    Kp nm Pivo
    Podporte nas na Facebooku !
    Pridaj do zalozky
    Pridaj do zalozky





    [center]






    Movie Name: GLOW (S03)(2019)(Complete)
    IMDb Rating: 8.0/10

    Quality: 1080p (WebDL)
    Language: E-AC-3 5.1 640kb/s - English  
    E-AC-3 2.0 128 kb/s - Polish , Germany
    Subtitles: Multi
    Director: Kate Dennis, Tristram Shapeero, Wendey Stanzler, Todd Fjelsted, Claire Scanlon, Jesse Peretz, Melanie Mayron, Phil Abraham, Sin Heder, Lynn Shelton, Mark A. Burley, John Cameron Mitchell, Meera Menon, Anya Adams, Alison Brie
    Writers: Liz Flahive, Nick Jones, Carly Mensch, Sascha Rothchild, Rachel Shukert, Jenji Kohan, Sascha Rotermund, Kim Rosenstock, Victor Quinaz, Marquita Robinson
    Genres: Comedy | Drama | Sport |


    A look at the personal and professional lives of a group of women who perform for a wrestling organization in Los Angeles during the 1980s.




    [/center]

    Format                                   : Matroska
    Format version                           : Version 4
    File size                                : 850 MiB
    Duration                                 : 34 min 16 s
    Overall bit rate mode                    : Variable
    Overall bit rate                         : 3 466 kb/s
    Movie name                               : V av
    Description                              : Pr hodin ped vodnm pedstavenm vkasinu Fan-Tan vLas Vegas dojde vpmm televiznm penosu kobrovsk tragdii, kter celou zemi podn vyds.
    Writing application                      : Lavf58.76.100
    Writing library                          : Lavf58.76.100
    ErrorDetectionType                       : Per level 1
    EPISODE_ID                               : 1
    SEASON_NUMBER                            : 3
    SHOW                                     : GLOW: Ndhern eny wrestlingu

    Video
    ID                                       : 1
    Format                                   : AVC
    Format/Info                              : Advanced Video Codec
    Format profile                           : High@L4
    Format settings                          : CABAC / 4 Ref Frames
    Format settings, CABAC                   : Yes
    Format settings, Reference frames        : 4 frames
    Codec ID                                 : V_MPEG4/ISO/AVC
    Duration                                 : 34 min 16 s
    Bit rate mode                            : Variable
    Bit rate                                 : 2 501 kb/s
    Maximum bit rate                         : 20.0 Mb/s
    Width                                    : 1 920 pixels
    Height                                   : 1 080 pixels
    Display aspect ratio                     : 16:9
    Frame rate mode                          : Constant
    Frame rate                               : 23.976 (24000/1001) FPS
    Color space                              : YUV
    Chroma subsampling                       : 4:2:0
    Bit depth                                : 8 bits
    Scan type                                : Progressive
    Bits/(Pixel*Frame)                       : 0.050
    Stream size                              : 613 MiB (72%)
    Title                                    : ?@GPAC2.1-DEV-rev6151-gb558f0b55-HEAD
    Writing library                          : x264 core 148 r2727 7d026e8
    Encoding settings                        : cabac=1 / ref=4 / deblock=1:0:0 / analyse=0x3:0x111 / me=umh / subme=10 / psy=1 / psy_rd=1.00:0.00 / mixed_ref=1 / me_range=120 / chroma_me=1 / trellis=2 / 8x8dct=1 / cqm=0 / deadzone=21,11 / fast_pskip=1 / chroma_qp_offset=-2 / threads=8 / lookahead_threads=2 / sliced_threads=0 / nr=0 / decimate=1 / interlaced=0 / bluray_compat=0 / stitchable=1 / constrained_intra=0 / bframes=16 / b_pyramid=2 / b_adapt=2 / b_bias=0 / direct=3 / weightb=1 / open_gop=0 / weightp=2 / keyint=240 / keyint_min=121 / scenecut=0 / intra_refresh=0 / rc_lookahead=240 / rc=crf / mbtree=1 / crf=21.0 / qcomp=0.50 / qpmin=6 / qpmax=51 / qpstep=4 / vbv_maxrate=20000 / vbv_bufsize=25000 / crf_max=0.0 / nal_hrd=vbr / filler=0 / ip_ratio=1.40 / aq=1:0.80
    Default                                  : Yes
    Forced                                   : No
    VENDOR_ID                                : [0][0][0][0]

    Audio #1
    ID                                       : 2
    Format                                   : E-AC-3
    Format/Info                              : Enhanced AC-3
    Commercial name                          : Dolby Digital Plus
    Codec ID                                 : A_EAC3
    Duration                                 : 34 min 16 s
    Bit rate mode                            : Constant
    Bit rate                                 : 128 kb/s
    Channel(s)                               : 2 channels
    Channel layout                           : L R
    Sampling rate                            : 48.0 kHz
    Frame rate                               : 31.250 FPS (1536 SPF)
    Bit depth                                : 32 bits
    Compression mode                         : Lossy
    Stream size                              : 31.4 MiB (4%)
    Title                                    : nmina
    Language                                 : German
    Service kind                             : Complete Main
    Default                                  : Yes
    Forced                                   : No
    VENDOR_ID                                : [0][0][0][0]

    Audio #2
    ID                                       : 3
    Format                                   : E-AC-3
    Format/Info                              : Enhanced AC-3
    Commercial name                          : Dolby Digital Plus
    Codec ID                                 : A_EAC3
    Duration                                 : 34 min 16 s
    Bit rate mode                            : Constant
    Bit rate                                 : 640 kb/s
    Channel(s)                               : 6 channels
    Channel layout                           : L R C LFE Ls Rs
    Sampling rate                            : 48.0 kHz
    Frame rate                               : 31.250 FPS (1536 SPF)
    Bit depth                                : 32 bits
    Compression mode                         : Lossy
    Stream size                              : 157 MiB (18%)
    Title                                    : anglitina [Originl]
    Language                                 : English
    Service kind                             : Complete Main
    Default                                  : No
    Forced                                   : No
    VENDOR_ID                                : [0][0][0][0]

    Audio #3
    ID                                       : 4
    Format                                   : E-AC-3
    Format/Info                              : Enhanced AC-3
    Commercial name                          : Dolby Digital Plus
    Codec ID                                 : A_EAC3
    Duration                                 : 34 min 16 s
    Bit rate mode                            : Constant
    Bit rate                                 : 128 kb/s
    Channel(s)                               : 2 channels
    Channel layout                           : L R
    Sampling rate                            : 48.0 kHz
    Frame rate                               : 31.250 FPS (1536 SPF)
    Bit depth                                : 32 bits
    Compression mode                         : Lossy
    Stream size                              : 31.4 MiB (4%)
    Title                                    : poltina
    Language                                 : Polish
    Service kind                             : Complete Main
    Default                                  : No
    Forced                                   : No
    VENDOR_ID                                : [0][0][0][0]

    Text #1
    ID                                       : 5
    Format                                   : UTF-8
    Codec ID                                 : S_TEXT/UTF8
    Codec ID/Info                            : UTF-8 Plain Text
    Duration                                 : 33 min 47 s
    Title                                    : etina
    Writing library                          : Lavc58.134.100 srt
    Language                                 : Czech
    Default                                  : Yes
    Forced                                   : No

    Text #2
    ID                                       : 6
    Format                                   : UTF-8
    Codec ID                                 : S_TEXT/UTF8
    Codec ID/Info                            : UTF-8 Plain Text
    Duration                                 : 33 min 47 s
    Title                                    : nmina
    Writing library                          : Lavc58.134.100 srt
    Language                                 : German
    Default                                  : No
    Forced                                   : No

    Text #3
    ID                                       : 7
    Format                                   : UTF-8
    Codec ID                                 : S_TEXT/UTF8
    Codec ID/Info                            : UTF-8 Plain Text
    Duration                                 : 33 min 47 s
    Title                                    : German [ForcedNarrative]
    Writing library                          : Lavc58.134.100 srt
    Language                                 : German
    Default                                  : No
    Forced                                   : No

    Text #4
    ID                                       : 8
    Format                                   : UTF-8
    Codec ID                                 : S_TEXT/UTF8
    Codec ID/Info                            : UTF-8 Plain Text
    Duration                                 : 33 min 45 s
    Title                                    : anglitina [CC]
    Writing library                          : Lavc58.134.100 srt
    Language                                 : English
    Default                                  : No
    Forced                                   : No

    Text #5
    ID                                       : 9
    Format                                   : UTF-8
    Codec ID                                 : S_TEXT/UTF8
    Codec ID/Info                            : UTF-8 Plain Text
    Duration                                 : 33 min 47 s
    Title                                    : maartina
    Writing library                          : Lavc58.134.100 srt
    Language                                 : Hungarian
    Default                                  : No
    Forced                                   : No

    Text #6
    ID                                       : 10
    Format                                   : UTF-8
    Codec ID                                 : S_TEXT/UTF8
    Codec ID/Info                            : UTF-8 Plain Text
    Duration                                 : 33 min 47 s
    Title                                    : Polish [ForcedNarrative]
    Writing library                          : Lavc58.134.100 srt
    Language                                 : Polish
    Default                                  : No
    Forced                                   : No

    Text #7
    ID                                       : 11
    Format                                   : UTF-8
    Codec ID                                 : S_TEXT/UTF8
    Codec ID/Info                            : UTF-8 Plain Text
    Duration                                 : 33 min 47 s
    Title                                    : poltina
    Writing library                          : Lavc58.134.100 srt
    Language                                 : Polish
    Default                                  : No
    Forced                                   : No











    Jablonka, Merlin88,

    + Pridaj vlastnu verziu tohto torrentu +


    Upozornenie:
    Ziadny zo zobrazench sborov sa nenachdza na tomto serveri. Server slzi len k sreniu vlastnorucne vytvorench aplikci, vide, hudby ai. Autori strnok nenes ziadnu zodpovednost za zverejnen odkazy, komentre a obsah sborov. Vsetky komentre, odkazy, sbory ktor by svojou povahou mohli byt v rozpore zo zkonmi sem vkladte na vlastn zodpovednost. Autori strnok si vyhradzuj prvo cenzry odkazov, komentrov prp. sborov, ktor by svojou povahou mohli byt v rozpore zo zkonmi a dobrmi mravmi. Dodrzujte pravidl!


    No comments...


    Back

    Na serveru se nenalzaj zdne soubory. Za odkazy jsou vhradn zodpovdn uzivatel a nvstvnci tohoto trackeru. Administrtor nen zodpovdn za pridan obsah ani za skody zpusoben uzivateli. Rozsirovat strnku nebo jej obsah bez souhlasu ownera je zakzano. Nesmte pouzvat tuto webovou strnku pro distribuovan nebo download zdnho materilu pokud nemte povolen od prslusnho vlastnka prv. Uzivatel jsou zodpovdn za dodrzovn tchto pravidel a podmnek. Owner m prvo kdykoliv zmnit pravidla tohoto trackeru.

    [ Script trval: 0.029 sec. ] - [ GZIP: enabled ]
    Je zhruba 18:26
    sql

    TOPlist