Tvoj účet nieje VIP.
Preto sú tvoje funkcie a možnosti značne obmedzené.
Pre aktiváciu VIP klikni sem.

Dlouhe louceni / The Long Goodbye (1973)(Mastered)(Hevc)(1080p)(BluRay)(English-CZ) = CSFD 66% | SkTorrent.eu

Cz-SkTorrent open Tracker, na volné zdielanie súborov. Pridajte sa k nasej komunite a získajte pristup k tisícom torrentov.

  • vysoká rýchlost
  • úplne zdarma
  • prevazne Slovenska a Ceska scena
  • ste tu s nami uz 5 rokov - Dakujeme
  • Vitaj Guest (Login) Ako stahovat
    torrenty?
    Torrenty:
    v1 textová
    v2 obrázková
    v3 online filmy
    Ako sa stat
    Uploaderom
    Online
    Filmy
    Forum
    Pravidlá
    BitTorrent
    klient
    Meno: Heslo:
    Zaregistrovat
    Po zaregistrovaní mozte volne stahovat
    Zabudol som heslo

    Torrent's details
    Dlouhe louceni / The Long Goodbye (1973)(Mastered)(Hevc)(1080p)(BluRay)(English-CZ) = CSFD 66% Názov:Dlouhe louceni / The Long Goodbye (1973)(Mastered)(Hevc)(1080p)(BluRay)(English-CZ) = CSFD 66% Hodnocení: Stiahnut
    Pozriet Online
    Kategória:Filmy CZ/SK dabing Velikost:1.6 GB BitTorrent klient
    Pridaný: Súbory:
    Skontrolován:2022-04-28 Peerov:6 (Seed: 6, Leech: 0)
    Zaner:Drama,Krimi,Mysteriozni,Thriller Uploader:Uvidis, az ked budes
    VIP
    Kúp nám Pivo 1,10€

    Kúp nám Pivo
    Podporte nas na Facebooku !
    Pridaj do zalozky
    Pridaj do zalozky






    [center]





    Movie Name: The Long Goodbye (1973)(Mastered)
    IMDb Rating: 7.5/10

    Quality: 1080p (BluRay)
    Language: English (AAC 2.0) Czech (AAC 2.0)
    Subtitles: English/Czech
    Director: Robert Altman
    Writers: Leigh Brackett (screenplay) Raymond Chandler (novel "The Long Goodbye")
    Genres: Comedy | Crime | Drama |


    Private investigator Philip Marlowe helps a friend out of a jam, but in doing so gets implicated in his wife's murder.
    ***
    Americký režisér Robert Altman patřil v 70. letech k hlavním průkopníkům americké nezávislé scény, kteří se snažili o hollywoodský umělecký film. Proslul jako autor, který si vypěstoval velmi osobitý styl založený na provokativním pojednání společenských témat a ve svých filmech vyjadřoval kritiku a nedůvěru k americké společnosti. Po celou svou kariéru si pohrával s tradičními filmovými žánry a stereotypy. Ve válečném snímku MASH (1969) zachytil protiválečný postoj prostřednictvím absurdního humoru. Svět Divokého západu zesměšnil ve filmech McCabe a paní Millerová (1971) nebo Buffalo Bill a Indiáni (1976). Slavný snímek Nashville (1975) představoval mozaiku společenských vztahů na pozadí country festivalu... Ve svém snímku Dlouhé loučení (1973) pro změnu navázal na tradici filmu noir. Jedná se o osobitou adaptaci slavného románu Raymonda Chandlera Loučení s Lennoxem, jehož děj Altman oproti předloze zasadil do období svobodomyslných 70. let. Hlavní postavou příběhu je soukromý detektiv Philip Marlowe (Elliott Gould), k jehož charakteristice neodmyslitelně patří nezřízené pití alkoholu, kouření cigaret a projevy plné cynismu a ironie. Jednoho večera se u něj v bytě objeví jeho přítel Terry Lennox a požádá ho, aby ho zavezl do Mexika. Marlowe mu vyhoví, ovšem ihned po svém návratu se ocitne ve vazbě kvůli vyšetřování vraždy Lennoxovy manželky. Na první pohled se zdá být vše jasné – žárlivý manžel zavraždil svou manželku a poté spáchal sebevraždu v Mexiku. Jakmile se ovšem Marlowe ocitne na svobodě, rozjíždí pátrání na vlastní pěst. O jeho vyšetřování se nápadně začne zajímat i úspěšný, ale věčně opilý spisovatel Roger Wade a jeho žena Eileen. Přibývají další mrtví a Marlowe začíná rozplétat záhadu, která stála za zmizením jeho přítele






    [/center]

    Format                                   : Matroska
    Format version                           : Version 4
    File size                                : 1.55 GiB
    Duration                                 : 1 h 52 min
    Overall bit rate                         : 1 978 kb/s
    Encoded date                             : UTC 2021-11-10 02:05:52
    Writing application                      : mkvmerge v53.0.0 ('Fool's Gold') 64-bit
    Writing library                          : libebml v1.4.1 + libmatroska v1.6.2
    Cover                                    : Yes
    Attachments                              : cover.jpg

    Video
    ID                                       : 1
    Format                                   : HEVC
    Format/Info                              : High Efficiency Video Coding
    Format profile                           : Main 10@L4@Main
    Codec ID                                 : V_MPEGH/ISO/HEVC
    Duration                                 : 1 h 52 min
    Bit rate                                 : 1 800 kb/s
    Width                                    : 1 920 pixels
    Height                                   : 824 pixels
    Display aspect ratio                     : 2.35:1
    Frame rate mode                          : Constant
    Frame rate                               : 23.976 (24000/1001) FPS
    Color space                              : YUV
    Chroma subsampling                       : 4:2:0
    Bit depth                                : 10 bits
    Bits/(Pixel*Frame)                       : 0.047
    Stream size                              : 1.41 GiB (91%)
    Writing library                          : x265 1.5+88-0e89af0781ee:[Windows][GCC 4.8.2][64 bit] 16bpp
    Encoding settings                        : wpp / ctu=64 / min-cu-size=8 / max-tu-size=32 / tu-intra-depth=1 / tu-inter-depth=1 / me=2 / subme=3 / merange=44 / no-rect / no-amp / max-merge=3 / temporal-mvp / no-early-skip / rdpenalty=0 / no-tskip / no-tskip-fast / strong-intra-smoothing / no-lossless / no-cu-lossless / no-constrained-intra / no-fast-intra / open-gop / no-temporal-layers / interlace=0 / keyint=250 / min-keyint=23 / scenecut=40 / rc-lookahead=20 / bframes=4 / bframe-bias=0 / b-adapt=2 / ref=3 / weightp / no-weightb / aq-mode=1 / aq-strength=1.00 / cbqpoffs=0 / crqpoffs=0 / rd=3 / psy-rd=0.60 / psy-rdoq=0.00 / signhide / lft / no-sao / no-sao-non-deblock / b-pyramid / cutree / rc=2 / pass / bitrate=1800 / qcomp=0.60 / qpmin=0 / qpmax=51 / qpstep=4 / cplxblur=20.0 / qblur=0.5 / ipratio=1.40 / pbratio=1.30
    Default                                  : Yes
    Forced                                   : No

    Audio #1
    ID                                       : 2
    Format                                   : AAC LC SBR
    Format/Info                              : Advanced Audio Codec Low Complexity with Spectral Band Replication
    Commercial name                          : HE-AAC
    Format settings                          : Explicit
    Codec ID                                 : A_AAC-2
    Duration                                 : 1 h 52 min
    Bit rate                                 : 68.9 kb/s
    Channel(s)                               : 1 channel
    Channel layout                           : C
    Sampling rate                            : 48.0 kHz
    Frame rate                               : 23.438 FPS (2048 SPF)
    Compression mode                         : Lossy
    Delay relative to video                  : 31 ms
    Stream size                              : 55.3 MiB (3%)
    Language                                 : English
    Default                                  : Yes
    Forced                                   : No

    Audio #2
    ID                                       : 3
    Format                                   : AAC LC SBR
    Format/Info                              : Advanced Audio Codec Low Complexity with Spectral Band Replication
    Commercial name                          : HE-AAC
    Format settings                          : Explicit
    Codec ID                                 : A_AAC-2
    Duration                                 : 1 h 52 min
    Bit rate                                 : 107 kb/s
    Channel(s)                               : 2 channels
    Channel layout                           : L R
    Sampling rate                            : 48.0 kHz
    Frame rate                               : 23.438 FPS (2048 SPF)
    Compression mode                         : Lossy
    Delay relative to video                  : 31 ms
    Stream size                              : 85.7 MiB (5%)
    Language                                 : Czech
    Default                                  : No
    Forced                                   : No

    Text #1
    ID                                       : 4
    Format                                   : UTF-8
    Codec ID                                 : S_TEXT/UTF8
    Codec ID/Info                            : UTF-8 Plain Text
    Duration                                 : 1 h 48 min
    Bit rate                                 : 72 b/s
    Count of elements                        : 1502
    Stream size                              : 57.6 KiB (0%)
    Language                                 : Czech
    Default                                  : Yes
    Forced                                   : No

    Text #2
    ID                                       : 5
    Format                                   : UTF-8
    Codec ID                                 : S_TEXT/UTF8
    Codec ID/Info                            : UTF-8 Plain Text
    Duration                                 : 1 h 50 min
    Bit rate                                 : 70 b/s
    Count of elements                        : 1236
    Stream size                              : 56.5 KiB (0%)
    Language                                 : English
    Default                                  : No
    Forced                                   : No











    pohee, luboskopavol, dedula, Hebrejec, hklucka, Peter_Nemčák, Gardel,

    + Pridaj vlastnu verziu tohto torrentu +


    Upozornenie:
    Ziadny zo zobrazených súborov sa nenachádza na tomto serveri. Server slúzi len k síreniu vlastnorucne vytvorených aplikácií, videí, hudby ai. Autori stránok nenesú ziadnu zodpovednost za zverejnené odkazy, komentáre a obsah súborov. Vsetky komentáre, odkazy, súbory ktoré by svojou povahou mohli byt v rozpore zo zákonmi sem vkladáte na vlastnú zodpovednost. Autori stránok si vyhradzujú právo cenzúry odkazov, komentárov príp. súborov, ktoré by svojou povahou mohli byt v rozpore zo zákonmi a dobrými mravmi. Dodrzujte pravidlá!


    No comments...


    Back

    Na serveru se nenalézají zádne soubory. Za odkazy jsou výhradně zodpovědní uzivatelé a návstěvníci tohoto trackeru. Administrátor není zodpovědný za pridaný obsah ani za skody zpusobené uzivateli. Rozsirovat stránku nebo její obsah bez souhlasu ownera je zakázano. Nesmíte pouzívat tuto webovou stránku pro distribuovaní nebo download zádného materiálu pokud nemáte povolení od príslusného vlastníka práv. Uzivatelé jsou zodpovědní za dodrzování těchto pravidel a podmínek. Owner má právo kdykoliv změnit pravidla tohoto trackeru.

    [ Script trval: 0.026 sec. ] - [ GZIP: enabled ]
    Je zhruba 23:55
    sql

    TOPlist