Tvoj účet nieje VIP.
Preto sú tvoje funkcie a možnosti značne obmedzené.
Pre aktiváciu VIP klikni sem.

Lez ma kratke nohy / Coming & Going (2011)(CZ) = CSFD 34% | SkTorrent.eu

Cz-SkTorrent open Tracker, na volné zdielanie súborov. Pridajte sa k nasej komunite a získajte pristup k tisícom torrentov.

  • vysoká rýchlost
  • úplne zdarma
  • prevazne Slovenska a Ceska scena
  • ste tu s nami uz 5 rokov - Dakujeme
  • Vitaj Guest (Login) Ako stahovat
    torrenty?
    Torrenty:
    v1 textová
    v2 obrázková
    v3 online filmy
    Ako sa stat
    Uploaderom
    Online
    Filmy
    Forum
    Pravidlá
    BitTorrent
    klient
    Meno: Heslo:
    Zaregistrovat
    Po zaregistrovaní mozte volne stahovat
    Zabudol som heslo

    Torrent's details
    Lez ma kratke nohy / Coming & Going (2011)(CZ) = CSFD 34% Názov:Lez ma kratke nohy / Coming & Going (2011)(CZ) = CSFD 34% Hodnocení: Stiahnut
    Pozriet Online
    Kategória:Filmy CZ/SK dabing Velikost:1.0 GB BitTorrent klient
    Pridaný: Súbory:
    Skontrolován:2014-02-13 Peerov:0 (Seed: 0, Leech: 0)
    Zaner:Komedie Uploader:Uvidis, az ked budes
    VIP
    Kúp nám Pivo 1,10€

    Kúp nám Pivo
    Podporte nas na Facebooku !
    Pridaj do zalozky
    Pridaj do zalozky





    Release: Coming.and.Going.2011.dvb-trip.XviD-KoLENUKE-CZ
    Názov: Lež má krátké nohy / Coming & Going (2011)


    Jazyk: Český
    Titulky: Nie
    Kvalita zvuku: MPEG Audio at 128 Kbps; 2.0;  44.1 KHz
    Kvalita videa: MPEG-4 Visual at 1 496 Kbps; 720 x 576; 25.000 fps
    Odkaz na ČSFD: http://www.csfd.cz/film/315838-lez/
    Odkaz na IMDb:  http://www.imdb.com/title/tt1946177/
    Rok vydania: 2011
    Dĺžka: 1 h. 29 min.
    Žáner: Komédia



    Obsah:
    Ostýchavý gynekolog Lee tajně miluje právničku Alex. Zdá se ale, že zůstane jen jeho tajným snem. Pak se jednoho dne osudově zraní na józe a musí strávit několik dní na invalidním vozíku. Protože zjistí, že na vozíčku má ke své vyvolené daleko blíž, rozhodne se i nadále hrát handicapovaného. Jenže tím celou situaci pořádně zamotá... (oficiální text distributora)



    Screen:



    MediaInfo:General
    Format: AVI
    Format/Info: Audio Video Interleave
    File size: 1.02 GiB
    Duration: 1h 29mn
    Overall bit rate: 1 634 Kbps

    Video
    ID: 0
    Format: MPEG-4 Visual
    Format profile: Advanced Simple@L5
    Format settings, BVOP: 2
    Format settings, QPel: No
    Format settings, GMC: No warppoints
    Format settings, Matrix: Default (H.263)
    Codec ID: XVID
    Codec ID/Hint: XviD
    Duration: 1h 29mn
    Bit rate: 1 496 Kbps
    Width: 720 pixels
    Height: 576 pixels
    Display aspect ratio: 16:9
    Frame rate: 25.000 fps
    Standard: PAL
    Color space: YUV
    Chroma subsampling: 4:2:0
    Bit depth: 8 bits
    Scan type: Progressive
    Compression mode: Lossy
    Bits/(Pixel*Frame): 0.144
    Stream size: 952 MiB (92%)
    Writing library: XviD 1.2.1 (UTC 2008-12-04)

    Audio
    ID: 1
    Format: MPEG Audio
    Format version: Version 1
    Format profile: Layer 3
    Mode: Joint stereo
    Mode extension: MS Stereo
    Codec ID: 55
    Codec ID/Hint: MP3
    Duration: 1h 29mn
    Source duration: 1h 29mn
    Bit rate mode: Constant
    Bit rate: 128 Kbps
    Channel(s): 2 channels
    Sampling rate: 44.1 KHz
    Compression mode: Lossy
    Stream size: 81.5 MiB (8%)
    Alignment: Aligned on interleaves
    Interleave, duration: 40 ms (1.00 video frame)
    Writing library                          : LAME3.98











    AldrigEvigt,

    + Pridaj vlastnu verziu tohto torrentu +


    Upozornenie:
    Ziadny zo zobrazených súborov sa nenachádza na tomto serveri. Server slúzi len k síreniu vlastnorucne vytvorených aplikácií, videí, hudby ai. Autori stránok nenesú ziadnu zodpovednost za zverejnené odkazy, komentáre a obsah súborov. Vsetky komentáre, odkazy, súbory ktoré by svojou povahou mohli byt v rozpore zo zákonmi sem vkladáte na vlastnú zodpovednost. Autori stránok si vyhradzujú právo cenzúry odkazov, komentárov príp. súborov, ktoré by svojou povahou mohli byt v rozpore zo zákonmi a dobrými mravmi. Dodrzujte pravidlá!


    No comments...


    Back

    Na serveru se nenalézají zádne soubory. Za odkazy jsou výhradně zodpovědní uzivatelé a návstěvníci tohoto trackeru. Administrátor není zodpovědný za pridaný obsah ani za skody zpusobené uzivateli. Rozsirovat stránku nebo její obsah bez souhlasu ownera je zakázano. Nesmíte pouzívat tuto webovou stránku pro distribuovaní nebo download zádného materiálu pokud nemáte povolení od príslusného vlastníka práv. Uzivatelé jsou zodpovědní za dodrzování těchto pravidel a podmínek. Owner má právo kdykoliv změnit pravidla tohoto trackeru.

    [ Script trval: 0.022 sec. ] - [ GZIP: enabled ]
    Je zhruba 23:57
    sql

    TOPlist