Tvoj účet nieje VIP.
Preto sú tvoje funkcie a možnosti značne obmedzené.
Pre aktiváciu VIP klikni sem.

Zblunk / Splash (CZ/EN)(1984)(1080p-HDR)(Web-DL) = CSFD 59% | SkTorrent.eu

Cz-SkTorrent open Tracker, na volné zdieľanie súborov. Pridajte sa k našej komunite a získajte prístup k tisícom torrentov.

  • vysoká rýchlosť
  • úplne zdarma
  • prevažne Slovenská a Česká scéna
  • ste tu s nami už 10 rokov - Ďakujeme
  • Vitaj Guest (Login) Ako stahovat
    torrenty?
    Torrenty:
    v1 textová
    v2 obrázková
    Ako sa stat
    Uploaderom
    Online
    Filmy
    Forum
    Pravidlá
    SkTSocial
    BitTorrent
    klient
    Meno: Heslo:
    Zaregistrovat
    Po zaregistrovaní mozte volne stahovat
    Zabudol som heslo

    Zblunk / Splash (CZ/EN)(1984)(1080p-HDR)(Web-DL) = CSFD 59% Názov:Zblunk / Splash (CZ/EN)(1984)(1080p-HDR)(Web-DL) = CSFD 59% Hodnocení: Stiahnut
    Pozriet Online
    Kategória:HD Filmy - Velikost:10.2 GB BitTorrent klient
    Pridaný: Súbory:
    Skontrolován:2023-03-15 Peerov:2 (Seed: 1, Leech: 1)
    Zaner:Fantasy,Komedie,Romanticky Uploader:Uvidis, az ked budes
    VIP
    Kúp nám Pivo 1,10€

    Kúp nám Pivo

    Pridaj do zalozky
    Pridaj do zalozky






    Fantasy / Romantický / Komedie
    USA, 1984, 111 min


    ČSFD: https://www.csfd.cz/film/4558-zblunk/prehled/

    Režie: Ron Howard

    Scénář: Babaloo Mandel, Lowell Ganz

    Kamera: Donald Peterman

    Hudba: Lee Holdridge

    Hrají: (Tom Hanks - ), Daryl Hannah, Eugene Levy, John Candy, Dody Goodman, Shecky Greene, Richard B. Shull, Bobby Di Cicco, Howard Morris, David Knell

    Produkce: Brian Grazer

    Střih: Daniel P. Hanley, Mike Hill

    Zvuk: Nick Alphin

    Scénografie: Jack T. Collis, Philip Smith, Norman Rockett

    Kostýmy: May Routh

    Obsah:

    V roce 1959 spadl malý chlapec Allen Bauer do moře. Před smrtí ho tehdy zachránila malá blonďatá mořská víla. Uplynulo pětadvacet let a z malého chlapce vyrostl bystrý mladý muž, věčně uspěchaný majitel newyorského velkoobchodu, kterému přidělává řadu potíží jeho lehkomyslný bratr Freddie. Také malá mořská víla dospěla. Nikdy nezapomněla na malého chlapce. Stal se její ztracenou láskou, kterou se rozhodla najít. Přeplula oceán a vynořila se v New Yorku. Dala si jméno Madison podle ukazatele na jedné z newyorských ulic a na dlouhých, štíhlých nohou, ve které se po oschnutí proměnila její ploutev, vykročila hledat svou lásku. Skutečně se jí podaří Allena najít, a dokonce získat jeho srdce. V patách má ale bezcharakterního vědce Waltera Kornblutha, řídícího tajnou vládní laboratoř, ve které ji čeká bezcitné zkoumání a možná i pitva. To Allen samozřejmě nemůže dopustit a s pomocí svého bratra chce za každou cenu Madison zachránit. (TV Nova)

    Format                      : Matroska
    Format version              : Version 4
    File size                   : 10.2 GiB
    Duration                    : 1 h 49 min
    Overall bit rate mode       : Variable
    Overall bit rate            : 13.2 Mb/s
    Encoded date                : UTC 2023-02-19 00:09:39
    Writing application         : mkvmerge v74.0.0 ('You Oughta Know') 64-bit
    Writing library             : libebml v1.4.4 + libmatroska v1.7.1

    Video
    ID                          : 1
    Format                      : HEVC
    Format/Info                 : High Efficiency Video Coding
    Format profile              : Main 10@L4@High
    HDR format                  : SMPTE ST 2086, HDR10 compatible
    Codec ID                    : V_MPEGH/ISO/HEVC
    Duration                    : 1 h 49 min
    Bit rate                    : 8 089 kb/s
    Width                       : 1 920 pixels
    Height                      : 1 080 pixels
    Display aspect ratio        : 1.85:1
    Frame rate mode             : Constant
    Frame rate                  : 23.976 (24000/1001) FPS
    Color space                 : YUV
    Chroma subsampling          : 4:2:0
    Bit depth                   : 10 bits
    Bits/(Pixel*Frame)          : 0.163
    Stream size                 : 6.20 GiB (61%)
    Language                    : English
    Default                     : Yes
    Forced                      : No
    Color range                 : Limited
    Color primaries             : BT.2020
    Transfer characteristics    : PQ
    Matrix coefficients         : BT.2020 non-constant
    Mastering display color pri : Display P3
    Mastering display luminance : min: 0.0010 cd/m2, max: 1000 cd/m2

    Audio #1
    ID                          : 2
    Format                      : AC-3
    Format/Info                 : Audio Coding 3
    Commercial name             : Dolby Digital
    Codec ID                    : A_AC3
    Duration                    : 1 h 49 min
    Bit rate mode               : Constant
    Bit rate                    : 640 kb/s
    Channel(s)                  : 6 channels
    Channel layout              : L R C LFE Ls Rs
    Sampling rate               : 48.0 kHz
    Frame rate                  : 31.250 FPS (1536 SPF)
    Compression mode            : Lossy
    Stream size                 : 503 MiB (5%)
    Title                       : DD 5.1 @ 640 kb/s
    Language                    : Czech
    Service kind                : Complete Main
    Default                     : Yes
    Forced                      : No

    Audio #2
    ID                          : 3
    Format                      : DTS XLL
    Format/Info                 : Digital Theater Systems
    Commercial name             : DTS-HD Master Audio
    Codec ID                    : A_DTS
    Duration                    : 1 h 49 min
    Bit rate mode               : Variable
    Bit rate                    : 3 549 kb/s
    Channel(s)                  : 6 channels
    Channel layout              : C L R Ls Rs LFE
    Sampling rate               : 48.0 kHz
    Frame rate                  : 93.750 FPS (512 SPF)
    Bit depth                   : 24 bits
    Compression mode            : Lossless
    Delay relative to video     : 1 ms
    Stream size                 : 2.72 GiB (27%)
    Title                       : DD 5.1 @ 3 549 kb/s
    Language                    : English
    Default                     : No
    Forced                      : No

    Audio #3
    ID                          : 4
    Format                      : AC-3
    Format/Info                 : Audio Coding 3
    Commercial name             : Dolby Digital
    Codec ID                    : A_AC3
    Duration                    : 1 h 49 min
    Bit rate mode               : Constant
    Bit rate                    : 640 kb/s
    Channel(s)                  : 6 channels
    Channel layout              : L R C LFE Ls Rs
    Sampling rate               : 48.0 kHz
    Frame rate                  : 31.250 FPS (1536 SPF)
    Compression mode            : Lossy
    Stream size                 : 502 MiB (5%)
    Title                       : DD 5.1 @ 640 kb/s
    Language                    : English
    Service kind                : Complete Main
    Default                     : No
    Forced                      : No

    Audio #4
    ID                          : 5
    Format                      : AC-3
    Format/Info                 : Audio Coding 3
    Commercial name             : Dolby Digital
    Codec ID                    : A_AC3
    Duration                    : 1 h 49 min
    Bit rate mode               : Constant
    Bit rate                    : 320 kb/s
    Channel(s)                  : 2 channels
    Channel layout              : L R
    Sampling rate               : 48.0 kHz
    Frame rate                  : 31.250 FPS (1536 SPF)
    Compression mode            : Lossy
    Delay relative to video     : 1 ms
    Stream size                 : 251 MiB (2%)
    Title                       : Commentary DD 2.0 @ 320 kb/s
    Language                    : English
    Service kind                : Complete Main
    Default                     : No
    Forced                      : No

    Text #1
    ID                          : 6
    Format                      : ASS
    Codec ID                    : S_TEXT/ASS
    Codec ID/Info               : Advanced Sub Station Alpha
    Duration                    : 1 h 45 min
    Bit rate                    : 72 b/s
    Frame rate                  : 0.165 FPS
    Count of elements           : 1042
    Compression mode            : Lossless
    Stream size                 : 56.0 KiB (0%)
    Title                       : Czech Full
    Language                    : Czech
    Default                     : No
    Forced                      : No

    Text #2
    ID                          : 7
    Format                      : ASS
    Codec ID                    : S_TEXT/ASS
    Codec ID/Info               : Advanced Sub Station Alpha
    Duration                    : 33 s 320 ms
    Bit rate                    : 45 b/s
    Frame rate                  : 0.090 FPS
    Count of elements           : 3
    Compression mode            : Lossless
    Stream size                 : 191 Bytes (0%)
    Title                       : Forced
    Language                    : English
    Default                     : No
    Forced                      : No

    Text #3
    ID                          : 8
    Format                      : ASS
    Codec ID                    : S_TEXT/ASS
    Codec ID/Info               : Advanced Sub Station Alpha
    Duration                    : 1 h 48 min
    Bit rate                    : 96 b/s
    Frame rate                  : 0.214 FPS
    Count of elements           : 1394
    Compression mode            : Lossless
    Stream size                 : 76.8 KiB (0%)
    Title                       : Full
    Language                    : English
    Default                     : No
    Forced                      : No

    Menu
    00:00:00.000                : Program Start/Opening Credits
    00:01:52.988                : Boy Overboard
    00:04:27.768                : Grownup Problems
    00:13:30.685                : Desolate Drunk
    00:17:07.902                : Mr. Fat Jack's Boat
    00:23:11.599                : Mysterious Encounter
    00:31:35.310                : At Bloomingdale's
    00:37:00.969                : Home Away From Home
    00:46:56.355                : A Distant Memory
    00:54:21.592                : Allen In Love
    00:56:40.230                : A Big Present
    01:00:52.190                : Romantic Seafood Dinner
    01:04:43.338                : Lover's Quarrel
    01:10:36.566                : All Wet
    01:18:21.864                : A Lucky Guy
    01:22:54.761                : Covert Operation
    01:31:20.976                : Reunited
    01:36:56.811                : In Hot Pursuit
    01:41:47.059                : A Tough Choice
    01:45:07.927                : End Credits













    polda712, llebo4, mimu, pepa49, Jablonka,

    + Pridaj vlastnu verziu tohto torrentu +


    Upozornenie:
    Ziadny zo zobrazených súborov sa nenachádza na tomto serveri. Server slúzi len k síreniu vlastnorucne vytvorených aplikácií, videí, hudby ai. Autori stránok nenesú ziadnu zodpovednost za zverejnené odkazy, komentáre a obsah súborov. Vsetky komentáre, odkazy, súbory ktoré by svojou povahou mohli byt v rozpore zo zákonmi sem vkladáte na vlastnú zodpovednost. Autori stránok si vyhradzujú právo cenzúry odkazov, komentárov príp. súborov, ktoré by svojou povahou mohli byt v rozpore zo zákonmi a dobrými mravmi. Dodrzujte pravidlá!





    0
    paprik123
    Ratio 0.01

    Clen

    09/05/2024 20.36.36
    Je to "stalled" muzete seedovat?


    Back

    Na serveru se nenalézají zádne soubory. Za odkazy jsou výhradně zodpovědní uzivatelé a návstěvníci tohoto trackeru. Administrátor není zodpovědný za pridaný obsah ani za skody zpusobené uzivateli. Nesmíte pouzívat tuto webovou stránku pro distribuovaní nebo download zádného materiálu pokud nemáte povolení od príslusného vlastníka práv. Uzivatelé jsou zodpovědní za dodrzování těchto pravidel a podmínek. Owner má právo kdykoliv změnit pravidla tohoto trackeru.

    [ Script trval: 0.135 sec. ] - [ GZIP: enabled ]
    Je zhruba 22:08
    sql

    TOPlist