Tvoj účet nieje VIP.
Preto sú tvoje funkcie a možnosti značne obmedzené.
Pre aktiváciu VIP klikni sem.

Gleb Albumy 2017,2019,2022 | SkTorrent.eu

Cz-SkTorrent open Tracker, na volné zdielanie súborov. Pridajte sa k nasej komunite a získajte pristup k tisícom torrentov.

  • vysoká rýchlost
  • úplne zdarma
  • prevazne Slovenska a Ceska scena
  • ste tu s nami uz 5 rokov - Dakujeme
  • Vitaj Guest (Login) Ako stahovat
    torrenty?
    Torrenty:
    v1 textová
    v2 obrázková
    v3 online filmy
    Ako sa stat
    Uploaderom
    Online
    Filmy
    Forum
    Pravidlá
    BitTorrent
    klient
    Meno: Heslo:
    Zaregistrovat
    Po zaregistrovaní mozte volne stahovat
    Zabudol som heslo

    Torrent's details
    Gleb Albumy 2017,2019,2022 Názov:Gleb Albumy 2017,2019,2022 Hodnocení:N/A Stiahnut
    Pozriet Online
    Kategória:Hudba Velikost:181.1 MB BitTorrent klient
    Pridaný: Súbory:
    Skontrolován:2022-08-04 Peerov:5 (Seed: 5, Leech: 0)
    Zaner: Uploader:Uvidis, az ked budes
    VIP
    Kúp nám Pivo 1,10€

    Kúp nám Pivo
    Podporte nas na Facebooku !
    Pridaj do zalozky
    Pridaj do zalozky











    Albumy:BIG BOY FM,Lavička Pimpin,GAUČ STORYTELLING


    Interpret:Gleb
    Rok vydania:BIG BOY FM 2022,Lavička Pimpin 2017,GAUČ STORYTELLING 2019
    žáner:Rap/Hip Hop





    TRACKLIST ALBUMU
    /1 Big Boy FM intro
    /2 Frekvencia
    /3 Známky života
    /4 ESC
    /5 Homie Rap
    /6 Mc Erik & Barbara
    /7 Free ft. Mc Prázdna peňaženka
    /8 Poslucháči na linke (Skit)
    /9 Soundtrack malej metropoly
    /10 Na skalách freestyle
    /11 Hitmejkrrr
    /12 Big Boy FM


    /1 Z LAVIČKY NA GAUČ - intro
    /2 GO GO GO
    /3 OD NAS
    /4 GAUČ n BASS
    /5 BRÁNY feat. SAMEY
    /6 HUDOBNÉ OKIENKO - skit
    /7 BLBÉ PRÍBEHY vol.2
    /8 GAUČ STORYTELLING
    /9 INTERVIEW
    /10 BACK TO LAVIČKA - skit
    /11 MOTOREST
    /12 BOYZ n DA HOOD feat. HATORRI HANZA
    /13 VYPADNI Z MOJHO GAUČU feat. LUNA , FOBIA KID, BIG HORSE, KAPUT



    TRACKLIST ALBUMU
    /1 Big Boy FM intro
    /2 Frekvencia
    /3 Známky života
    /4 ESC
    /5 Homie Rap
    /6 Mc Erik & Barbara
    /7 Free ft. Mc Prázdna peňaženka
    /8 Poslucháči na linke (Skit)
    /9 Soundtrack malej metropoly
    /10 Na skalách freestyle
    /11 Hitmejkrrr
    /12 Big Boy FM







    General
    Complete name                            : C:\Users\Renátka\Desktop\albumy\Gleb všetky albumy\Gleb - BIG BOY FM 2022\01 BIG BOY FM INTRO.mp3
    Format                                   : MPEG Audio
    File size                                : 1.13 MiB
    Duration                                 : 1 min 6 s
    Overall bit rate mode                    : Variable
    Overall bit rate                         : 128 kb/s
    Album                                    : BIG BOY FM
    Album/Performer                          : Gleb
    Part/Position                            : 1
    Track name                               : BIG BOY FM INTRO
    Track name/Position                      : 1
    Performer                                : Gleb
    Publisher                                : Universal Music s.r.o.
    Recorded date                            : 2022-06-20
    Writing library                          : LAME3.99r
    Cover                                    : Yes
    Cover MIME                               : image/jpeg
    Comment                                  : SKA012200122
    comment                                  : SKA012200122

    Audio
    Format                                   : MPEG Audio
    Format version                           : Version 1
    Format profile                           : Layer 3
    Format settings                          : Joint stereo / MS Stereo
    Duration                                 : 1 min 6 s
    Bit rate mode                            : Variable
    Bit rate                                 : 128 kb/s
    Channel(s)                               : 2 channels
    Sampling rate                            : 44.1 kHz
    Frame rate                               : 38.281 FPS (1152 SPF)
    Compression mode                         : Lossy
    Stream size                              : 1.02 MiB (90%)
    Writing library                          : LAME3.99r
    Encoding settings                        : -m m -V 10 -q 0

    General
    Complete name                            : C:\Users\Renátka\Desktop\albumy\Gleb všetky albumy\Gleb - Gauč Storytelling (2019) [MP3]\cd-gleb-gaucstorytelling-album.jpg
    Format                                   : JPEG
    File size                                : 78.6 KiB

    Image
    Format                                   : JPEG
    Width                                    : 585 pixels
    Height                                   : 585 pixels
    Color space                              : YUV
    Chroma subsampling                       : 4:2:0
    Bit depth                                : 8 bits
    Compression mode                         : Lossy
    Stream size                              : 78.6 KiB (100%)









    huntersk035,

    + Pridaj vlastnu verziu tohto torrentu +


    Upozornenie:
    Ziadny zo zobrazených súborov sa nenachádza na tomto serveri. Server slúzi len k síreniu vlastnorucne vytvorených aplikácií, videí, hudby ai. Autori stránok nenesú ziadnu zodpovednost za zverejnené odkazy, komentáre a obsah súborov. Vsetky komentáre, odkazy, súbory ktoré by svojou povahou mohli byt v rozpore zo zákonmi sem vkladáte na vlastnú zodpovednost. Autori stránok si vyhradzujú právo cenzúry odkazov, komentárov príp. súborov, ktoré by svojou povahou mohli byt v rozpore zo zákonmi a dobrými mravmi. Dodrzujte pravidlá!


    No comments...


    Back

    Na serveru se nenalézají zádne soubory. Za odkazy jsou výhradně zodpovědní uzivatelé a návstěvníci tohoto trackeru. Administrátor není zodpovědný za pridaný obsah ani za skody zpusobené uzivateli. Rozsirovat stránku nebo její obsah bez souhlasu ownera je zakázano. Nesmíte pouzívat tuto webovou stránku pro distribuovaní nebo download zádného materiálu pokud nemáte povolení od príslusného vlastníka práv. Uzivatelé jsou zodpovědní za dodrzování těchto pravidel a podmínek. Owner má právo kdykoliv změnit pravidla tohoto trackeru.

    [ Script trval: 0.725 sec. ] - [ GZIP: enabled ]
    Je zhruba 21:14
    sql

    TOPlist