Tvoj účet nieje VIP.
Preto sú tvoje funkcie a možnosti značne obmedzené.
Pre aktiváciu VIP klikni sem.

Hrozba Smrti / Road House (1989)(CZ/EN)(BDrip)(1080p) = CSFD 66% | SkTorrent.eu

Cz-SkTorrent open Tracker, na volné zdieľanie súborov. Pridajte sa k našej komunite a získajte prístup k tisícom torrentov.

  • vysoká rýchlosť
  • úplne zdarma
  • prevažne Slovenská a Česká scéna
  • ste tu s nami už 10 rokov - Ďakujeme
  • Vitaj Guest (Login) Ako stahovat
    torrenty?
    Torrenty:
    v1 textová
    v2 obrázková
    Ako sa stat
    Uploaderom
    Online
    Filmy
    Forum
    Pravidlá
    SkTSocial
    BitTorrent
    klient
    Meno: Heslo:
    Zaregistrovat
    Po zaregistrovaní mozte volne stahovat
    Zabudol som heslo

    Hrozba Smrti / Road House (1989)(CZ/EN)(BDrip)(1080p) = CSFD 66% Názov:Hrozba Smrti / Road House (1989)(CZ/EN)(BDrip)(1080p) = CSFD 66% Hodnocení: Stiahnut
    Pozriet Online
    Kategória:HD Filmy - Velikost:8.4 GB BitTorrent klient
    Pridaný: Súbory:
    Skontrolován:2023-01-20 Peerov:10 (Seed: 10, Leech: 0)
    Zaner:Akcni,Drama,Krimi,Thriller Uploader:Uvidis, az ked budes
    VIP
    Kúp nám Pivo 1,10€

    Kúp nám Pivo

    Pridaj do zalozky
    Pridaj do zalozky





    Video: 1080p MKV
    Audio: CZ/EN
    Jazyk: CZ/EN Full



    Akční / Krimi / Drama / Thriller
    USA, 1989, 110 min


    CSFD: https://www.csfd.cz/film/16373-road-house/prehled/

    Režie: Rowdy Herrington
    Scénář: Hilary Henkin, David Lee Henry
    Kamera: Dean Cundey
    Hudba: Michael Kamen
    Hrají: Patrick Swayze, Kelly Lynch, Sam Elliott, Ben Gazzara, Marshall R. Teague, Kevin Tighe, John Doe, Kathleen Wilhoite, Gary Hudson, Anthony De Longis
    Produkce: Joel Silver
    Střih: John F. Link, Frank J. Urioste
    Zvuk: Bud Maffett
    Scénografie: Philip Leonard
    Masky: Scott H. Eddo
    Kostýmy: Marilyn Vance

    Popis:
    Patrick Swayze hraje muže, který udrží pořádek i v nejdivočejším nočním klubu. Právě díky němu se zanedbaný podnik v malém městečku na Missouri promění ve vyhledávanou diskotéku, kde nikdo nemá strach. Přináší mu to i nepřátele. Chtějí si s ním vyřídit účty nejtvrdším způsobem. Když se jim to nedaří, spojí se s brutálním mafiánem, který ovládá celé okolí. Najednou proti sobě má mladíka, který se odmítá podřídit, i když cítí jasně hrozbu smrti. Road House přesvědčí příznivce Patricka Swayzeho, že je stejně skvělý karatista jako tanečník. Svědčí o tom nejenom divácký úspěch Harringtonova filmu, ale i další role Swayzeho v kriminálních filmech jako Break Point (Bod zlomu). (MGM)


    Formát                                   : Matroska
    Format version                           : Version 4
    Velikost souboru                         : 8,40 GiB
    Duration                                 : 1 h 54 min
    Celkový BitRate                          : 10,5 Mb/s
    Název filmu                              : Road House (1989)
    Encoded date                             : UTC 2023-01-19 19:18:34
    Použitý software                         : mkvmerge v72.0.0 ('Minuano (Six-eight)') 64-bit
    Enkódoval                                : libebml v1.4.4 + libmatroska v1.7.1

    Video
    ID                                       : 1
    Formát                                   : AVC
    Formát/Info                              : Advanced Video Codec
    Format profile                           : High@L4.1
    Format settings                          : CABAC / 8 Ref Frames
    Format settings, CABAC                   : Ano
    Format settings, Reference frames        : 8 frames
    Codec ID                                 : V_MPEG4/ISO/AVC
    Duration                                 : 1 h 54 min
    Bit rate                                 : 8 381 kb/s
    Šířka                                    : 1 920pixely
    Výška                                    : 820pixely
    Poměr stran                              : 2,35:1
    Frame rate mode                          : Constant
    Frame rate                               : 23,976 FPS
    Color space                              : YUV
    Chroma subsampling                       : 4:2:0
    Bit depth                                : 8 bits
    Scan type                                : Progressive
    Bits/(Pixel*Frame)                       : 0.222
    Stream size                              : 6,68 GiB (80%)
    Titul                                    : 8381kbps 1080p x264
    Enkódoval                                : x264 core 68 r1179M 96e2229
    Nastavení enkoderu                       : cabac=1 / ref=8 / deblock=1:-3:-3 / analyse=0x3:0x113 / me=umh / subme=9 / psy_rd=1.2:0.0 / mixed_ref=1 / me_range=32 / chroma_me=1 / trellis=2 / 8x8dct=1 / cqm=0 / deadzone=21,11 / chroma_qp_offset=-2 / threads=3 / nr=0 / decimate=1 / mbaff=0 / bframes=8 / b_pyramid=1 / b_adapt=2 / b_bias=0 / direct=3 / wpredb=1 / keyint=250 / keyint_min=25 / scenecut=40 / rc=2pass / bitrate=8381 / ratetol=1.0 / qcomp=0.60 / qpmin=10 / qpmax=51 / qpstep=4 / cplxblur=20.0 / qblur=0.5 / vbv_maxrate=50000 / vbv_bufsize=50000 / ip_ratio=1.40 / pb_ratio=1.30 / aq=1:1.00
    Jazyk                                    : English
    Default                                  : Ano
    Forced                                   : Ne

    Audio #1
    ID                                       : 2
    Formát                                   : DTS
    Formát/Info                              : Digital Theater Systems
    Codec ID                                 : A_DTS
    Duration                                 : 1 h 54 min
    Bit rate mode                            : Constant
    Bit rate                                 : 1 509 kb/s
    Kanál(y)                                 : 6 kanály
    Channel layout                           : C L R Ls Rs LFE
    Sampling rate                            : 48,0 kHz
    Frame rate                               : 93,750 FPS (512 SPF)
    Bit depth                                : 24 bits
    Compression mode                         : Lossy
    Stream size                              : 1,20 GiB (14%)
    Titul                                    : 1536kbps 6ch DTS
    Jazyk                                    : English
    Default                                  : Ne
    Forced                                   : Ne

    Audio #2
    ID                                       : 3
    Formát                                   : AC-3
    Formát/Info                              : Audio Coding 3
    Commercial name                          : Dolby Digital
    Codec ID                                 : A_AC3
    Duration                                 : 1 h 54 min
    Bit rate mode                            : Constant
    Bit rate                                 : 640 kb/s
    Kanál(y)                                 : 2 kanály
    Channel layout                           : L R
    Sampling rate                            : 48,0 kHz
    Frame rate                               : 31,250 FPS (1536 SPF)
    Compression mode                         : Lossy
    Stream size                              : 523 MiB (6%)
    Titul                                    : Czech 2.0
    Jazyk                                    : Czech
    Service kind                             : Complete Main
    Default                                  : Ano
    Forced                                   : Ne

    Text #1
    ID                                       : 4
    Formát                                   : VobSub
    Muxing mode                              : zlib
    Codec ID                                 : S_VOBSUB
    Codec ID/Info                            : Picture based subtitle format used on DVDs
    Duration                                 : 1 h 53 min
    Bit rate                                 : 1 722 b/s
    Frame rate                               : 0,148 FPS
    Count of elements                        : 1005
    Stream size                              : 1,39 MiB (0%)
    Titul                                    : English Full
    Jazyk                                    : English
    Default                                  : Ne
    Forced                                   : Ne

    Text #2
    ID                                       : 5
    Formát                                   : UTF-8
    Codec ID                                 : S_TEXT/UTF8
    Codec ID/Info                            : UTF-8 Plain Text
    Duration                                 : 1 h 48 min
    Bit rate                                 : 27 b/s
    Frame rate                               : 0,121 FPS
    Count of elements                        : 786
    Stream size                              : 21,5 KiB (0%)
    Titul                                    : Czech Full
    Jazyk                                    : Czech
    Default                                  : Ne
    Forced                                   : Ne

    Menu
    00:00:00.000                             : Opening Credits
    00:04:10.291                             : Double Deuce
    00:06:23.383                             : Welcome to Jasper
    00:09:46.669                             : Paid to Play
    00:12:36.505                             : Ten a Kiss
    00:16:24.942                             : She's a Runner
    00:21:58.650                             : 3 Rules
    00:25:43.166                             : Cleaning House
    00:29:46.701                             : No Joke
    00:32:23.066                             : Hello Red
    00:36:41.824                             : Little Mistake
    00:39:13.184                             : Pain Don't Hurt
    00:42:06.565                             : Everybody Pays
    00:46:01.925                             : New Town, Same Story
    00:47:46.738                             : Sorry, We're Closed
    00:51:03.018                             : Fan Club
    00:53:56.107                             : Because of Me
    00:57:45.336                             : Running Out of Booze
    00:59:41.703                             : You Can Stay
    01:06:28.067                             : Word Is...
    01:10:56.585                             : It's a Lie
    01:15:47.292                             : Things Heat Up
    01:23:44.936                             : This is My Town
    01:29:25.985                             : Prepare to Die
    01:35:48.743                             : Coin Toss
    01:40:42.494                             : Tails Again...
    01:44:04.279                             : Trophy Room
    01:49:24.724                             : End Credits
    01:54:09.676                             : 01:54:09.676








    ONLINE











    pepa49, Jooozef, dave8888, Martty, mimu, jankoondovcik, 666, CharlesPaul, GPP82, misinko479,

    + Pridaj vlastnu verziu tohto torrentu +


    Upozornenie:
    Ziadny zo zobrazených súborov sa nenachádza na tomto serveri. Server slúzi len k síreniu vlastnorucne vytvorených aplikácií, videí, hudby ai. Autori stránok nenesú ziadnu zodpovednost za zverejnené odkazy, komentáre a obsah súborov. Vsetky komentáre, odkazy, súbory ktoré by svojou povahou mohli byt v rozpore zo zákonmi sem vkladáte na vlastnú zodpovednost. Autori stránok si vyhradzujú právo cenzúry odkazov, komentárov príp. súborov, ktoré by svojou povahou mohli byt v rozpore zo zákonmi a dobrými mravmi. Dodrzujte pravidlá!





    2
    evik1
    Ratio 2.16

    Member+

    25/01/2023 19.16.31
    pecka film fak dobry

    0
    flasinet
    Ratio 0.99

    Clen

    23/01/2023 22.41.44
    to je divna anglictina Roadhouse-Hrozba smrti?


    --------------
    >> 23/01/2023 22.47.59
    UPLOADER: se zeptej na ČSFD je tam i další = Volání po pomstě (neoficiální název)


    Back

    Na serveru se nenalézají zádne soubory. Za odkazy jsou výhradně zodpovědní uzivatelé a návstěvníci tohoto trackeru. Administrátor není zodpovědný za pridaný obsah ani za skody zpusobené uzivateli. Nesmíte pouzívat tuto webovou stránku pro distribuovaní nebo download zádného materiálu pokud nemáte povolení od príslusného vlastníka práv. Uzivatelé jsou zodpovědní za dodrzování těchto pravidel a podmínek. Owner má právo kdykoliv změnit pravidla tohoto trackeru.

    [ Script trval: 0.019 sec. ] - [ GZIP: enabled ]
    Je zhruba 19:49
    sql

    TOPlist