Tvoj účet nieje VIP.
Preto sú tvoje funkcie a možnosti značne obmedzené.
Pre aktiváciu VIP klikni sem.

Boruto: Naruto Next Generations 1-259 dielov cz tit = CSFD 76% | SkTorrent.eu

Cz-SkTorrent open Tracker, na volné zdielanie súborov. Pridajte sa k nasej komunite a získajte pristup k tisícom torrentov.

  • vysoká rýchlost
  • úplne zdarma
  • prevazne Slovenska a Ceska scena
  • ste tu s nami uz 5 rokov - Dakujeme
  • Vitaj Guest (Login) Ako stahovat
    torrenty?
    Torrenty:
    v1 textová
    v2 obrázková
    v3 online filmy
    Ako sa stat
    Uploaderom
    Online
    Filmy
    Forum
    Pravidlá
    BitTorrent
    klient
    Meno: Heslo:
    Zaregistrovat
    Po zaregistrovaní mozte volne stahovat
    Zabudol som heslo

    Torrent's details
     Boruto: Naruto Next Generations 1-259 dielov cz tit  = CSFD 76% Názov: Boruto: Naruto Next Generations 1-259 dielov cz tit = CSFD 76% Hodnocení:N/A Stiahnut
    Pozriet Online
    Kategória:Seriál Velikost:41.3 GB BitTorrent klient
    Pridaný: Súbory:
    Skontrolován:2022-07-27 Peerov:11 (Seed: 10, Leech: 1)
    Zaner:Animovany,Fantasy Uploader:Uvidis, az ked budes
    VIP
    Kúp nám Pivo 1,10€

    Kúp nám Pivo
    Podporte nas na Facebooku !
    Pridaj do zalozky
    Pridaj do zalozky






    žáner:Animovaný / Fantasy
    Japonsko, (2017–2022), 103 h 43 min (Minutáž: 23–24 min)
    Réžia: Hirojuki Jamašita, Norijuki Abe, Toširo Fudží
    https://www.csfd.cz/film/476831-boruto-naruto-next-generations/prehled/




    General
    Unique ID                                : 181766294529628045003162241275086238912 (0x88BEEA3A42CFC50696CCE38375B7F4C0)
    Complete name                            : D:\Seriál\Naruto cz dab 2002-2007\boruto\02.mkv
    Format                                   : Matroska
    Format version                           : Version 4
    File size                                : 353 MiB
    Duration                                 : 23 min 49 s
    Overall bit rate                         : 2 072 kb/s
    Encoded date                             : UTC 2017-04-13 13:04:58
    Writing application                      : mkvmerge v9.4.0 ('Knurl') 64bit
    Writing library                          : libebml v1.3.4 + libmatroska v1.4.5

    Video
    ID                                       : 1
    Format                                   : AVC
    Format/Info                              : Advanced Video Codec
    Format profile                           : High@L5.1
    Format settings                          : CABAC / 6 Ref Frames
    Format settings, CABAC                   : Yes
    Format settings, Reference frames        : 6 frames
    Codec ID                                 : V_MPEG4/ISO/AVC
    Duration                                 : 23 min 49 s
    Bit rate                                 : 1 942 kb/s
    Width                                    : 1 920 pixels
    Height                                   : 1 080 pixels
    Display aspect ratio                     : 16:9
    Frame rate mode                          : Constant
    Frame rate                               : 23.976 (24000/1001) FPS
    Color space                              : YUV
    Chroma subsampling                       : 4:2:0
    Bit depth                                : 8 bits
    Scan type                                : Progressive
    Bits/(Pixel*Frame)                       : 0.039
    Stream size                              : 331 MiB (94%)
    Writing library                          : x264 core 148 r2705 3f5ed56
    Encoding settings                        : cabac=1 / ref=6 / deblock=1:1:1 / analyse=0x3:0x133 / me=umh / subme=7 / psy=1 / psy_rd=0.40:0.00 / mixed_ref=1 / me_range=16 / chroma_me=1 / trellis=2 / 8x8dct=1 / cqm=0 / deadzone=21,11 / fast_pskip=1 / chroma_qp_offset=-2 / threads=6 / lookahead_threads=1 / sliced_threads=0 / nr=0 / decimate=1 / interlaced=0 / bluray_compat=0 / constrained_intra=0 / bframes=5 / b_pyramid=2 / b_adapt=2 / b_bias=0 / direct=3 / weightb=1 / open_gop=0 / weightp=2 / keyint=250 / keyint_min=23 / scenecut=40 / intra_refresh=0 / rc_lookahead=40 / rc=crf / mbtree=1 / crf=21.5 / qcomp=0.60 / qpmin=10 / qpmax=51 / qpstep=4 / ip_ratio=1.40 / aq=1:0.60
    Language                                 : English
    Default                                  : Yes
    Forced                                   : No

    Audio
    ID                                       : 2
    Format                                   : AAC LC
    Format/Info                              : Advanced Audio Codec Low Complexity
    Codec ID                                 : A_AAC-2
    Duration                                 : 23 min 49 s
    Bit rate                                 : 128 kb/s
    Channel(s)                               : 2 channels
    Channel layout                           : L R
    Sampling rate                            : 44.1 kHz
    Frame rate                               : 43.066 FPS (1024 SPF)
    Compression mode                         : Lossy
    Delay relative to video                  : 10 ms
    Stream size                              : 21.8 MiB (6%)
    Default                                  : Yes
    Forced                                   : No

    Menu #1
    00:00:00.000                             : cs:Intro 002
    00:01:01.000                             : cs:Opening
    00:02:31.000                             : cs:Boruto 002
    00:21:30.000                             : cs:Ending
    00:23:00.000                             : csreview 003

    Menu #2
    00:00:00.059                             : en:00:00:00.059









    huntersk035, pohee, Amidamaru, Kolbik_AitD_cz, kronos18, xBajco, Ondvik,

    + Pridaj vlastnu verziu tohto torrentu +


    Upozornenie:
    Ziadny zo zobrazených súborov sa nenachádza na tomto serveri. Server slúzi len k síreniu vlastnorucne vytvorených aplikácií, videí, hudby ai. Autori stránok nenesú ziadnu zodpovednost za zverejnené odkazy, komentáre a obsah súborov. Vsetky komentáre, odkazy, súbory ktoré by svojou povahou mohli byt v rozpore zo zákonmi sem vkladáte na vlastnú zodpovednost. Autori stránok si vyhradzujú právo cenzúry odkazov, komentárov príp. súborov, ktoré by svojou povahou mohli byt v rozpore zo zákonmi a dobrými mravmi. Dodrzujte pravidlá!





    0
    Ondvik
    Ratio 0.11

    VIP

    01/09/2022 14.42.45
    prosim o seed dikec

    -1
    frankie030
    Ratio 3.95

    Member+

    12/08/2022 16.25.51
    chyby tu 122 dil jen informuji

    -1
    Robcak88
    Ratio 2.14

    Member+

    28/07/2022 16.23.24
    what is wrong with this torrent, not downloading at all, only seeding all the time, thanks for torrent though


    Back

    Na serveru se nenalézají zádne soubory. Za odkazy jsou výhradně zodpovědní uzivatelé a návstěvníci tohoto trackeru. Administrátor není zodpovědný za pridaný obsah ani za skody zpusobené uzivateli. Rozsirovat stránku nebo její obsah bez souhlasu ownera je zakázano. Nesmíte pouzívat tuto webovou stránku pro distribuovaní nebo download zádného materiálu pokud nemáte povolení od príslusného vlastníka práv. Uzivatelé jsou zodpovědní za dodrzování těchto pravidel a podmínek. Owner má právo kdykoliv změnit pravidla tohoto trackeru.

    [ Script trval: 0.122 sec. ] - [ GZIP: enabled ]
    Je zhruba 03:37
    sql

    TOPlist