Tvoj účet nieje VIP.
Preto sú tvoje funkcie a možnosti značne obmedzené.
Pre aktiváciu VIP klikni sem.

Shang-Chi A Legenda O Deseti Prstenech(CZ-SK-EN)(2021)(1080p-HEVC)(Web-DL) = CSFD 72% | SkTorrent.eu

Cz-SkTorrent open Tracker, na volné zdielanie súborov. Pridajte sa k nasej komunite a získajte pristup k tisícom torrentov.

  • vysoká rýchlost
  • úplne zdarma
  • prevazne Slovenska a Ceska scena
  • ste tu s nami uz 5 rokov - Dakujeme
  • Vitaj Guest (Login) Ako stahovat
    torrenty?
    Torrenty:
    v1 textová
    v2 obrázková
    v3 online filmy
    Ako sa stat
    Uploaderom
    Online
    Filmy
    Forum
    Pravidlá
    BitTorrent
    klient
    Meno: Heslo:
    Zaregistrovat
    Po zaregistrovaní mozte volne stahovat
    Zabudol som heslo

    Torrent's details
    Shang-Chi A Legenda O Deseti Prstenech(CZ-SK-EN)(2021)(1080p-HEVC)(Web-DL) = CSFD 72% Názov:Shang-Chi A Legenda O Deseti Prstenech(CZ-SK-EN)(2021)(1080p-HEVC)(Web-DL) = CSFD 72% Hodnocení: Stiahnut
    Pozriet Online
    Kategória:HD Filmy Velikost:3.3 GB BitTorrent klient
    Pridaný: Súbory:
    Skontrolován:2022-06-21 Peerov:23 (Seed: 23, Leech: 0)
    Zaner:Akcni,Dobrodruzny,Fantasy Uploader:Uvidis, az ked budes
    VIP
    Kúp nám Pivo 1,10€

    Kúp nám Pivo
    Podporte nas na Facebooku !
    Pridaj do zalozky
    Pridaj do zalozky











    Akční / Dobrodružný / Fantasy
    USA, 2021, 133 min


    Video: 1080p MKV HEVC
    Audio : CZ/SK/EN Dabing - AC-3 5.1- 256 kb/s
    Titulky : CZ/SK/EN

    Režie: Destin Daniel Cretton
    Scénář: Dave Callaham, Destin Daniel Cretton, Andrew Lanham
    Kamera: Bill Pope
    Hudba: Joel P. West
    Hrají: Simu Liu, Tony Leung Chiu-wai, Awkwafina, Meng'er Zhang, Fala Chen, Michelle Yeoh, Wah Yuen, Florian Munteanu, Ben Kingsley, Jayden Zhang, (více)
    Produkce: Kevin Feige, Jonathan Schwartz
    Střih: Elísabet Ronaldsdóttir, Nat Sanders, Harry Yoon
    Scénografie: Sue Chan
    Masky: Rick Findlater, Vardit Lahav
    Kostýmy: Kym Barrett

    Náhled








    Hlavním hrdinou je superhrdina čínského původu Shang-Chi, který je konfrontován se svojí minulostí, když je zapleten do sítě tajemné organizace Deset prstenů. Jedná se o druhý film ze čtvrté fáze MCU. Ve filmu uvidíme skutečného záporáka Mandarina. (Falcon)



    Formát                                   : Matroska
    Format version                           : Version 4
    Velikost souboru                         : 3,29 GiB
    Duration                                 : 2 h 12 min
    Celkový BitRate                          : 3 555 kb/s
    Název filmu                              : Shang-Chi a legenda o deseti prstenech
    Description                              : Hrdina filmu „Shang-Chi a legenda o deseti prstenech“ od studia Marvel jménem Shang-Chi, kterého hraje Simu Liu, musí čelit svému otci a své minulosti, o nichž si myslel, že ji nechal za sebou, neboť je znovu vtažen do sítě tajemné organizace Deset prstenů. Ve filmu dále hrají Awkwafina jako Shang-Chiho kamarádka Katy, Meng’er Zhang, Fala Chen, a Florian Munteanu, a Michelle Yeohová jako Ying Nan a Tony Leung jako Xu Wenwu.  /  / Pořad obsahuje scény, které mohou u osob citlivých na světlo vyvolat reakci. /  / Snímek „Shang-Chi a legenda o deseti prstenech“ režíroval Destin Daniel Cretton, producenty jsou Kevin Feige a Jonathan Schwartz a výkonnými producenty Louis D'Esposito, Victoria Alonso a Charles Newirth. Scénář k filmu napsali Dave Callaham & Destin Daniel Cretton & Andrew Lanham a autory námětu jsou Dave Callaham & Destin Daniel Cretton.
    Encoded date                             : UTC 2022-06-20 22:53:35
    Použitý software                         : HandBrake 1.5.1 2022011000
    Enkódoval                                : Lavf58.76.100
    ErrorDetectionType                       : Per level 1
    ARTIST                                   : Simu Liu,Awkwafina,Tony Leung,Michelle Yeoh,Meng'er Zhang,Ben Kingsley

    Video
    ID                                       : 1
    Formát                                   : HEVC
    Formát/Info                              : High Efficiency Video Coding
    Format profile                           : Main@L4@Main
    Codec ID                                 : V_MPEGH/ISO/HEVC
    Duration                                 : 2 h 12 min
    Bit rate                                 : 2 717 kb/s
    Šířka                                    : 1 920pixely
    Výška                                    : 1 080pixely
    Poměr stran                              : 1,905
    Frame rate mode                          : Constant
    Frame rate                               : 23,976 (24000/1001) FPS
    Color space                              : YUV
    Chroma subsampling                       : 4:2:0
    Bit depth                                : 8 bits
    Bits/(Pixel*Frame)                       : 0.055
    Stream size                              : 2,51 GiB (76%)
    Default                                  : Ano
    Forced                                   : Ne
    Color range                              : Limited
    Color primaries                          : BT.709
    Transfer characteristics                 : BT.709
    Matrix coefficients                      : BT.709

    Audio #1
    ID                                       : 2
    Formát                                   : E-AC-3
    Formát/Info                              : Enhanced AC-3
    Commercial name                          : Dolby Digital Plus
    Codec ID                                 : A_EAC3
    Duration                                 : 2 h 12 min
    Bit rate mode                            : Constant
    Bit rate                                 : 256 kb/s
    Kanál(y)                                 : 6 kanály
    Channel layout                           : L R C LFE Ls Rs
    Sampling rate                            : 48,0 kHz
    Frame rate                               : 31,250 FPS (1536 SPF)
    Compression mode                         : Lossy
    Stream size                              : 242 MiB (7%)
    Titul                                    : Čeština
    Jazyk                                    : Czech
    Service kind                             : Complete Main
    Default                                  : Ano
    Forced                                   : Ne

    Audio #2
    ID                                       : 3
    Formát                                   : E-AC-3
    Formát/Info                              : Enhanced AC-3
    Commercial name                          : Dolby Digital Plus
    Codec ID                                 : A_EAC3
    Duration                                 : 2 h 12 min
    Bit rate mode                            : Constant
    Bit rate                                 : 256 kb/s
    Kanál(y)                                 : 6 kanály
    Channel layout                           : L R C LFE Ls Rs
    Sampling rate                            : 48,0 kHz
    Frame rate                               : 31,250 FPS (1536 SPF)
    Compression mode                         : Lossy
    Stream size                              : 242 MiB (7%)
    Titul                                    : Slovenčina
    Jazyk                                    : Slovak
    Service kind                             : Complete Main
    Default                                  : Ne
    Forced                                   : Ne

    Audio #3
    ID                                       : 4
    Formát                                   : E-AC-3
    Formát/Info                              : Enhanced AC-3
    Commercial name                          : Dolby Digital Plus
    Codec ID                                 : A_EAC3
    Duration                                 : 2 h 12 min
    Bit rate mode                            : Constant
    Bit rate                                 : 256 kb/s
    Kanál(y)                                 : 6 kanály
    Channel layout                           : L R C LFE Ls Rs
    Sampling rate                            : 48,0 kHz
    Frame rate                               : 31,250 FPS (1536 SPF)
    Compression mode                         : Lossy
    Stream size                              : 242 MiB (7%)
    Titul                                    : English
    Jazyk                                    : English
    Service kind                             : Complete Main
    Default                                  : Ne
    Forced                                   : Ne

    Text #1
    ID                                       : 5
    Formát                                   : ASS
    Codec ID                                 : S_TEXT/ASS
    Codec ID/Info                            : Advanced Sub Station Alpha
    Duration                                 : 2 h 12 min
    Compression mode                         : Lossless
    Titul                                    : Čeština
    Jazyk                                    : Czech
    Default                                  : Ne
    Forced                                   : Ne

    Text #2
    ID                                       : 6
    Formát                                   : ASS
    Codec ID                                 : S_TEXT/ASS
    Codec ID/Info                            : Advanced Sub Station Alpha
    Duration                                 : 2 h 12 min
    Compression mode                         : Lossless
    Titul                                    : Slovenčina
    Jazyk                                    : Slovak
    Default                                  : Ne
    Forced                                   : Ne

    Text #3
    ID                                       : 7
    Formát                                   : ASS
    Codec ID                                 : S_TEXT/ASS
    Codec ID/Info                            : Advanced Sub Station Alpha
    Duration                                 : 2 h 11 min
    Compression mode                         : Lossless
    Titul                                    : English [CC]
    Jazyk                                    : English
    Default                                  : Ne
    Forced                                   : Ne








    ONLINE











    polda712, bodrobodro, Hatatitlaman, BVSM,

    + Pridaj vlastnu verziu tohto torrentu +


    Upozornenie:
    Ziadny zo zobrazených súborov sa nenachádza na tomto serveri. Server slúzi len k síreniu vlastnorucne vytvorených aplikácií, videí, hudby ai. Autori stránok nenesú ziadnu zodpovednost za zverejnené odkazy, komentáre a obsah súborov. Vsetky komentáre, odkazy, súbory ktoré by svojou povahou mohli byt v rozpore zo zákonmi sem vkladáte na vlastnú zodpovednost. Autori stránok si vyhradzujú právo cenzúry odkazov, komentárov príp. súborov, ktoré by svojou povahou mohli byt v rozpore zo zákonmi a dobrými mravmi. Dodrzujte pravidlá!





    0
    GUEST135001
    Ratio 10239.98

    Clen

    23/06/2022 21.42.24
    ďakujem kamoš


    Back

    Na serveru se nenalézají zádne soubory. Za odkazy jsou výhradně zodpovědní uzivatelé a návstěvníci tohoto trackeru. Administrátor není zodpovědný za pridaný obsah ani za skody zpusobené uzivateli. Rozsirovat stránku nebo její obsah bez souhlasu ownera je zakázano. Nesmíte pouzívat tuto webovou stránku pro distribuovaní nebo download zádného materiálu pokud nemáte povolení od príslusného vlastníka práv. Uzivatelé jsou zodpovědní za dodrzování těchto pravidel a podmínek. Owner má právo kdykoliv změnit pravidla tohoto trackeru.

    [ Script trval: 0.030 sec. ] - [ GZIP: enabled ]
    Je zhruba 03:51
    memcache

    TOPlist