Tvoj účet nieje VIP.
Preto sú tvoje funkcie a možnosti značne obmedzené.
Pre aktiváciu VIP klikni sem.

Kenpuu denki Berserk - 1. serie (1997)(JP/EN+CZtit.)[1080p][HEVC] = CSFD 87% | SkTorrent.eu

Cz-SkTorrent open Tracker, na volné zdielanie súborov. Pridajte sa k nasej komunite a získajte pristup k tisícom torrentov.

  • vysoká rýchlost
  • úplne zdarma
  • prevazne Slovenska a Ceska scena
  • ste tu s nami uz 5 rokov - Dakujeme
  • Vitaj Guest (Login) Ako stahovat
    torrenty?
    Torrenty:
    v1 textová
    v2 obrázková
    v3 online filmy
    Ako sa stat
    Uploaderom
    Online
    Filmy
    Forum
    Pravidlá
    BitTorrent
    klient
    Meno: Heslo:
    Zaregistrovat
    Po zaregistrovaní mozte volne stahovat
    Zabudol som heslo

    Torrent's details
    Kenpuu denki Berserk - 1. serie (1997)(JP/EN+CZtit.)[1080p][HEVC] = CSFD 87% Názov:Kenpuu denki Berserk - 1. serie (1997)(JP/EN+CZtit.)[1080p][HEVC] = CSFD 87% Hodnocení: Stiahnut
    Pozriet Online
    Kategória:Seriál Velikost:4.5 GB BitTorrent klient
    Pridaný: Súbory:
    Skontrolován:2022-07-31 Peerov:6 (Seed: 6, Leech: 0)
    Zaner:Akcni,Animovany,Drama,Fantasy Uploader:Uvidis, az ked budes
    VIP
    Kúp nám Pivo 1,10€

    Kúp nám Pivo
    Podporte nas na Facebooku !
    Pridaj do zalozky
    Pridaj do zalozky




    Kenpuu denki Berserk - 1. serie (1997) = CSFD 87%



         

    Jazyk: japonský, anglický
      Titulky: české, anglické
      Zdroj CZ tituliek:Hiyori.cz - Trpaslík
      Žáner: Animovaný / Akční / Drama / Fantasy / Horor
    Témy: Anime, Dystopie, Fantasy, Horor, Násilí, Ozbrojené složky, Podle mangy, Seinen
      Japonsko, 1997, 25x22 min

    Režie: Naohito Takahaši, Jasuhiro Geši, Jukio Okazaki, Masakazu Amija
    Předloha: Kentaró Miura (komiks)
    Scénář: Šódži Jonemura, Šinzó Fudžita, Acuhiro Tomioka…
    Kamera: Micunobu Jošida
    Hudba: Susumu Hirasawa
    Japonský dabing: Nobutoši Kanna, Tošijuki Morikawa, Júko Mijamura, Tomohiro Nišimura, Akira Išida, Masuo Amada, Akiko Jadžima, Teššó Genda, Juri Širatori…

    Popis
      Zdevastovaným královstvím Midland prochází záhadný Černý válečník a bojuje s démony. Místo useknuté ruky protéza s opakovací kuší, v druhé ruce masivní meč velikosti dospělého muže. Po boji během odpočinku v lese vzpomíná na doby, kdy jeho jméno bylo Guts. Na doby války Midlandu proti říši Chuder, na své tažení s Midlandskou kumpanií Jestřába, žoldáckou bandou vedenou charismatickým albínem Griffithem, Bílým jestřábem. Griffith věří, že jeho osudem je stát se králem a tomuto osudu zasvětil život svůj i celé kumpanie, která ho oddaně následuje. Sledujme tedy s Gutsem jeho heroickou pouť za snem.




     
         
     

    Hlavní
    Format: Matroska
    Format version: Version 4
    File size: 163 MiB
    Duration: 23 min 36 s
    Overall bit rate: 962 kb/s
    Movie name: Berserk: Episode 01 (The Black Swordsman)
    Encoded date: UTC 2022-06-26 11:41:43
    Writing application: mkvmerge v64.0.0 ('Willows') 64-bit
    Writing library: libebml v1.4.2 + libmatroska v1.6.4
    Attachments: OpenSans-Semibold.ttf

    Video
    Format: HEVC
    Format/Info: High Efficiency Video Coding
    Format profile: Main@L4@Main
    Codec ID: V_MPEGH/ISO/HEVC
    Duration: 23 min 36 s
    Bit rate: 832 kb/s
    Width: 1 440 pixels
    Height: 1 080 pixels
    Display aspect ratio: 4:3
    Frame rate mode: Constant
    Frame rate: 23.976 (24000/1001) FPS
    Original frame rate: 23.000 FPS
    Color space: YUV
    Chroma subsampling: 4:2:0
    Bit depth: 8 bits
    Bits/(Pixel*Frame): 0.022
    Stream size: 141 MiB (86%)
    Default: Yes
    Forced: No

    Audio #1
    Format: AAC LC
    Format/Info: Advanced Audio Codec Low Complexity
    Codec ID: A_AAC-2
    Duration: 23 min 36 s
    Bit rate: 64.2 kb/s
    Channel(s): 2 channels
    Channel layout: L R
    Sampling rate: 48.0 kHz
    Frame rate: 46.875 FPS (1024 SPF)
    Compression mode: Lossy
    Delay relative to video: 9 ms
    Stream size: 10.8 MiB (7%)
    Language: Japanese
    Default: Yes
    Forced: No

    Audio #2
    Format: AAC LC
    Format/Info: Advanced Audio Codec Low Complexity
    Codec ID: A_AAC-2
    Duration: 23 min 36 s
    Bit rate: 61.6 kb/s
    Channel(s): 2 channels
    Channel layout: L R
    Sampling rate: 48.0 kHz
    Frame rate: 46.875 FPS (1024 SPF)
    Compression mode: Lossy
    Delay relative to video: 9 ms
    Stream size: 10.4 MiB (6%)
    Language: English
    Default: No
    Forced: No

    Text #1
    Format: ASS
    Codec ID: S_TEXT/ASS
    Codec ID/Info: Advanced Sub Station Alpha
    Duration: 21 min 34 s
    Bit rate: 64 b/s
    Count of elements: 198
    Compression mode: Lossless
    Stream size: 10.2 KiB (0%)
    Language: Czech
    Default: Yes
    Forced: No

    Text #2
    Format: ASS
    Codec ID: S_TEXT/ASS
    Codec ID/Info: Advanced Sub Station Alpha
    Duration: 23 min 34 s
    Bit rate: 71 b/s
    Count of elements: 248
    Compression mode: Lossless
    Stream size: 12.3 KiB (0%)
    Title: English Full (ASS)
    Language: English
    Default: No
    Forced: No


    Pre lepšie vyhľadávanie anime na webe SKT si nastavte vo vyhľadávaní kategóriu Animovany








    pohee, Lucyfyre666, kronos18, Jablonka, boones, mulan, opruzaak111,

    + Pridaj vlastnu verziu tohto torrentu +


    Upozornenie:
    Ziadny zo zobrazených súborov sa nenachádza na tomto serveri. Server slúzi len k síreniu vlastnorucne vytvorených aplikácií, videí, hudby ai. Autori stránok nenesú ziadnu zodpovednost za zverejnené odkazy, komentáre a obsah súborov. Vsetky komentáre, odkazy, súbory ktoré by svojou povahou mohli byt v rozpore zo zákonmi sem vkladáte na vlastnú zodpovednost. Autori stránok si vyhradzujú právo cenzúry odkazov, komentárov príp. súborov, ktoré by svojou povahou mohli byt v rozpore zo zákonmi a dobrými mravmi. Dodrzujte pravidlá!





    1
    mulan
    Ratio 0.03

    Clen

    14/08/2022 00.14.20
    Nejlepší seriál,co jsem kdy viděl. Děkuji.


    --------------
    >> 19/08/2022 21.16.11
    UPLOADER: Vďaka za pochvalu


    Back

    Na serveru se nenalézají zádne soubory. Za odkazy jsou výhradně zodpovědní uzivatelé a návstěvníci tohoto trackeru. Administrátor není zodpovědný za pridaný obsah ani za skody zpusobené uzivateli. Rozsirovat stránku nebo její obsah bez souhlasu ownera je zakázano. Nesmíte pouzívat tuto webovou stránku pro distribuovaní nebo download zádného materiálu pokud nemáte povolení od príslusného vlastníka práv. Uzivatelé jsou zodpovědní za dodrzování těchto pravidel a podmínek. Owner má právo kdykoliv změnit pravidla tohoto trackeru.

    [ Script trval: 0.028 sec. ] - [ GZIP: enabled ]
    Je zhruba 03:32
    sql

    TOPlist