Tvoj účet nieje VIP.
Preto sú tvoje funkcie a možnosti značne obmedzené.
Pre aktiváciu VIP klikni sem.

O klukovi z plakátu (1969) = CSFD 72% | SkTorrent.eu

Cz-SkTorrent open Tracker, na volné zdieľanie súborov. Pridajte sa k našej komunite a získajte prístup k tisícom torrentov.

  • vysoká rýchlosť
  • úplne zdarma
  • prevažne Slovenská a Česká scéna
  • ste tu s nami už 10 rokov - Ďakujeme
  • Vitaj Guest (Login) Ako stahovat
    torrenty?
    Torrenty:
    v1 textová
    v2 obrázková
    Ako sa stat
    Uploaderom
    Online
    Filmy
    Forum
    Pravidlá
    SkTSocial
    BitTorrent
    klient
    Meno: Heslo:
    Zaregistrovat
    Po zaregistrovaní mozte volne stahovat
    Zabudol som heslo

     O klukovi z plakátu (1969) = CSFD 72% Názov: O klukovi z plakátu (1969) = CSFD 72% Hodnocení: Stiahnut
    Pozriet Online
    Kategória:Seriál - Velikost:3.1 GB BitTorrent klient
    Pridaný: Súbory:
    Skontrolován:2024-06-27 Peerov:27 (Seed: 27, Leech: 0)
    Zaner:Animovany,Rodinny Uploader:Uvidis, az ked budes
    VIP
    Kúp nám Pivo 1,10€

    Kúp nám Pivo

    Pridaj do zalozky
    Pridaj do zalozky




    Chlapec Lukáš chodí do první třídy. Jednoho dne šel Lukáš do školy a uviděl sám sebe na plakátě. Ten plakát totiž maloval jeho tatínek - malíř. Tak se Lukáš s Klukem z plakátu, také Lukášem, skamarádil.


    Hlavní
    Celý název a cesta                       : C:\Users\Tomáš\Downloads\O klukovi z plakatu 1969\O-klukovi-z-plakatu-01-Jak-sel-Lukas-za-Lukase-do-skoly_pm_640x474.mp4
    Formát                                   : MPEG-4
    Format profile                           : Base Media
    Codec ID                                 : isom (isom/iso2/avc1/mp41)
    Velikost souboru                         : 102 MiB
    Duration                                 : 6 min 21 s
    Overall bit rate mode                    : Variable
    Celkový BitRate                          : 2 246 kb/s
    Frame rate                               : 25,000 FPS
    Název filmu                              : O-klukovi-z-plakatu-01-Jak-sel-Lukas-za-Lukase-do-skoly_pm
    Performer                                : VideoProc Converter AI
    žánr                                     : Video
    Použitý software                         : Lavf60.3.100
    Komentář                                 : O-klukovi-z-plakatu-01-Jak-sel-Lukas-za-Lukase-do-skoly_pm

    Video
    ID                                       : 1
    Formát                                   : AVC
    Formát/Info                              : Advanced Video Codec
    Format profile                           : Main@L3
    Format settings                          : CABAC / 4 Ref Frames
    Format settings, CABAC                   : Ano
    Format settings, Reference frames        : 4 frames
    Format settings, GOP                     : M=4, N=25
    Codec ID                                 : avc1
    Codec ID/Info                            : Advanced Video Coding
    Duration                                 : 6 min 21 s
    Bit rate mode                            : Variable
    Bit rate                                 : 2 080 kb/s
    Maximum bit rate                         : 8 000 kb/s
    Šířka                                    : 640pixely
    Výška                                    : 474pixely
    Poměr stran                              : 4:3
    Frame rate mode                          : Constant
    Frame rate                               : 25,000 FPS
    Color space                              : YUV
    Chroma subsampling                       : 4:2:0
    Bit depth                                : 8 bits
    Scan type                                : Progressive
    Bits/(Pixel*Frame)                       : 0.274
    Stream size                              : 94,7 MiB (93%)
    Codec configuration box                  : avcC

    Audio
    ID                                       : 2
    Formát                                   : AAC LC
    Formát/Info                              : Advanced Audio Codec Low Complexity
    Codec ID                                 : mp4a-40-2
    Duration                                 : 6 min 21 s
    Bit rate mode                            : Constant
    Bit rate                                 : 159 kb/s
    Kanál(y)                                 : 2 kanály
    Channel layout                           : L R
    Sampling rate                            : 44,1 kHz
    Frame rate                               : 43,066 FPS (1024 SPF)
    Compression mode                         : Lossy
    Stream size                              : 7,26 MiB (7%)
    Default                                  : Ano
    Alternate group                          : 1


    https://www.youtube.com/watch?v=HsMMy06h4s8

    https://www.csfd.cz/film/203631-o-klukovi-z-plakatu/prehled/
     








    matrix0007, Carter83, pohee, Projekt23, llebo4, Adnay, Rojak, chanel777, Brda, skarpa, unknownbob, Sody666,

    + Pridaj vlastnu verziu tohto torrentu +


    Upozornenie:
    Ziadny zo zobrazených súborov sa nenachádza na tomto serveri. Server slúzi len k síreniu vlastnorucne vytvorených aplikácií, videí, hudby ai. Autori stránok nenesú ziadnu zodpovednost za zverejnené odkazy, komentáre a obsah súborov. Vsetky komentáre, odkazy, súbory ktoré by svojou povahou mohli byt v rozpore zo zákonmi sem vkladáte na vlastnú zodpovednost. Autori stránok si vyhradzujú právo cenzúry odkazov, komentárov príp. súborov, ktoré by svojou povahou mohli byt v rozpore zo zákonmi a dobrými mravmi. Dodrzujte pravidlá!


    No comments...


    Back

    Na serveru se nenalézají zádne soubory. Za odkazy jsou výhradně zodpovědní uzivatelé a návstěvníci tohoto trackeru. Administrátor není zodpovědný za pridaný obsah ani za skody zpusobené uzivateli. Nesmíte pouzívat tuto webovou stránku pro distribuovaní nebo download zádného materiálu pokud nemáte povolení od príslusného vlastníka práv. Uzivatelé jsou zodpovědní za dodrzování těchto pravidel a podmínek. Owner má právo kdykoliv změnit pravidla tohoto trackeru.

    [ Script trval: 0.016 sec. ] - [ GZIP: enabled ]
    Je zhruba 14:37
    sql

    TOPlist