Tvoj účet nieje VIP.
Preto sú tvoje funkcie a možnosti značne obmedzené.
Pre aktiváciu VIP klikni sem.

Otvorena rana / Il dito nella piaga (1969)(CZ) = CSFD 45% | SkTorrent.eu

Cz-SkTorrent open Tracker, na volné zdieľanie súborov. Pridajte sa k našej komunite a získajte prístup k tisícom torrentov.

  • vysoká rýchlosť
  • úplne zdarma
  • prevažne Slovenská a Česká scéna
  • ste tu s nami už 10 rokov - Ďakujeme
  • Vitaj Guest (Login) Ako stahovat
    torrenty?
    Torrenty:
    v1 textová
    v2 obrázková
    Ako sa stat
    Uploaderom
    Online
    Filmy
    Forum
    Pravidlá
    SkTSocial
    BitTorrent
    klient
    Meno: Heslo:
    Zaregistrovat
    Po zaregistrovaní mozte volne stahovat
    Zabudol som heslo

     Otvorena rana / Il dito nella piaga (1969)(CZ) = CSFD 45% Názov: Otvorena rana / Il dito nella piaga (1969)(CZ) = CSFD 45% Hodnocení:N/A Stiahnut
    Pozriet Online
    Kategória:Filmy CZ/SK dabing - Velikost:1.3 GB BitTorrent klient
    Pridaný: Súbory:
    Skontrolován:2023-01-22 Peerov:20 (Seed: 20, Leech: 0)
    Zaner:Drama,Valecny Uploader:Uvidis, az ked budes
    VIP
    Kúp nám Pivo 1,10€

    Kúp nám Pivo

    Pridaj do zalozky
    Pridaj do zalozky




    Hlavné parametre
    Celý názov a cesta                       : OTEVRENA RANA.avi
    Formát                                   : AVI
    Formát/Info                              : Audio Video Interleave
    Profil formátu                           : OpenDML
    Veľkosť súboru                           : 1,31 GiB
    Trvanie                                  : 1 h 27 min
    Celkový dátový tok                       : 2 141 kb/s
    Názov filmu                              : OTEV_EN__R_NA.Title1
    Použitý software                         : DVDFab

    Video
    ID                                       : 0
    Formát                                   : AVC
    Formát/Info                              : Advanced Video Codec
    Profil formátu                           : Baseline@L3
    Nastavenia formátu                       : 1 Ref Frames
    Format settings, CABAC                   : Nie
    Format settings, Reference frames        : 1snímka
    Format settings, GOP                     : M=1, N=24
    Označenie kodeku                         : H264
    Trvanie                                  : 1 h 27 min
    Dátový tok                               : 2 009 kb/s
    Šírka                                    : 720 pixelov
    Výška                                    : 372 pixelov
    Pomer strán                              : 1,935
    Frekvencia snímok                        : 25,000 snímok/sek.
    Color space                              : YUV
    Chroma subsampling                       : 4:2:0
    Bit depth                                : 8 bitov
    Scan type                                : Progresívne
    Bitov/(Bod*Snímka)                       : 0.300
    Stream size                              : 1,23 GiB (93%)
    Zakódoval                                : x264 core 148
    Nastavenie kodéru                        : cabac=0 / ref=1 / deblock=0:0:0 / analyse=0:0x111 / me=umh / subme=0 / psy=0 / mixed_ref=0 / me_range=12 / chroma_me=1 / trellis=0 / 8x8dct=0 / cqm=0 / deadzone=21,11 / fast_pskip=0 / chroma_qp_offset=0 / threads=4 / lookahead_threads=1 / sliced_threads=0 / nr=0 / decimate=1 / interlaced=0 / bluray_compat=0 / constrained_intra=0 / bframes=0 / weightp=0 / keyint=24 / keyint_min=13 / scenecut=0 / intra_refresh=0 / rc_lookahead=20 / rc=2pass / mbtree=0 / bitrate=2009 / ratetol=1.0 / qcomp=0.60 / qpmin=0 / qpmax=69 / qpstep=4 / cplxblur=20.0 / qblur=0.5 / vbv_maxrate=2009 / vbv_bufsize=2009 / nal_hrd=none / filler=0 / ip_ratio=1.40 / aq=0
    Color range                              : Limited
    Color primaries                          : BT.601 NTSC
    Transfer characteristics                 : BT.709
    Matrix coefficients                      : BT.601

    Audio
    ID                                       : 1
    Formát                                   : MPEG Audio
    Format version                           : Version 1
    Profil formátu                           : Layer 3
    Nastavenia formátu                       : Joint stereo / MS Stereo
    Označenie kodeku                         : 55
    Označenie kodeku/Hint                    : MP3
    Trvanie                                  : 1 h 27 min
    Režim dátového toku                      : Konštantný dátový tok
    Dátový tok                               : 128 kb/s
    Kanál(y)                                 : 2 kanály
    Sampling rate                            : 48,0 kHz
    Compression mode                         : Lossy
    Stream size                              : 80,4 MiB (6%)
    Alignment                                : Aligned on interleaves
    Interleave, duration                     : 24  ms (0,60 video frame)










    Otvorená rana
    Il Dito nella piaga
    Kategória:
    vojnový
    Réžia:
    T. Ricci
    Hrajú:
    K. Kinski, R. Saunders, G. Hilton
    Dĺžka:
    88 Minút
    Zvuk:
    český 2.0,

    Hoci sú odsúdení na smrť za zradu, dokážu v sebe nájsť morálnu silu postaviť sa zradnému nacistickému nepriateľovi. Dvaja americkí vojaci sú odsúdení na smrť za zločiny spáchané za 2. svetovej vojny. Pred vykonaním trestu ale skončí celý oddiel spojencov v nacistickej pasci. Jedinými, ktorí prežijú, sú mladý poručík a obaja odsúdení. Ich cynizmus a snaha dávať ruky preč od problémov okolitého sveta vezmú za svoje vo chvíli, keď na vlastnej koži spoznajú pocity ľudí, utlačovaných dlhé roky fašistami. Desiatnik Haskins (Klaus Kinski) a vojak Grayson (RAY Saunders) berú spravodlivosť do vlastných rúk a jedna z mnohých mikrovojen, ktoré spoločne dokázali zvrátiť beh moderných dejín, môže začat


    https://www.csfd.cz/film/35579-otevrena-rana/prehlad/







    HECHO, romál,

    + Pridaj vlastnu verziu tohto torrentu +


    Upozornenie:
    Ziadny zo zobrazených súborov sa nenachádza na tomto serveri. Server slúzi len k síreniu vlastnorucne vytvorených aplikácií, videí, hudby ai. Autori stránok nenesú ziadnu zodpovednost za zverejnené odkazy, komentáre a obsah súborov. Vsetky komentáre, odkazy, súbory ktoré by svojou povahou mohli byt v rozpore zo zákonmi sem vkladáte na vlastnú zodpovednost. Autori stránok si vyhradzujú právo cenzúry odkazov, komentárov príp. súborov, ktoré by svojou povahou mohli byt v rozpore zo zákonmi a dobrými mravmi. Dodrzujte pravidlá!


    No comments...


    Back

    Na serveru se nenalézají zádne soubory. Za odkazy jsou výhradně zodpovědní uzivatelé a návstěvníci tohoto trackeru. Administrátor není zodpovědný za pridaný obsah ani za skody zpusobené uzivateli. Nesmíte pouzívat tuto webovou stránku pro distribuovaní nebo download zádného materiálu pokud nemáte povolení od príslusného vlastníka práv. Uzivatelé jsou zodpovědní za dodrzování těchto pravidel a podmínek. Owner má právo kdykoliv změnit pravidla tohoto trackeru.

    [ Script trval: 0.086 sec. ] - [ GZIP: enabled ]
    Je zhruba 11:00
    memcache

    TOPlist