Tvoj účet nieje VIP.
Preto sú tvoje funkcie a možnosti značne obmedzené.
Pre aktiváciu VIP klikni sem.

Přátelé / Friends S01E01 CzEnSk 1080p VVC(x.266) 2.0 xHE-AAC(USAC) = CSFD 89% | SkTorrent.eu

Cz-SkTorrent open Tracker, na volné zdieľanie súborov. Pridajte sa k našej komunite a získajte prístup k tisícom torrentov.

  • vysoká rýchlosť
  • úplne zdarma
  • prevažne Slovenská a Česká scéna
  • ste tu s nami už 10 rokov - Ďakujeme
  • Vitaj Guest (Login) Ako stahovat
    torrenty?
    Torrenty:
    v1 textová
    v2 obrázková
    Ako sa stat
    Uploaderom
    Online
    Filmy
    Forum
    Pravidlá
    SkTSocial
    BitTorrent
    klient
    Meno: Heslo:
    Zaregistrovat
    Po zaregistrovaní mozte volne stahovat
    Zabudol som heslo

     Přátelé / Friends S01E01 CzEnSk 1080p VVC(x.266) 2.0 xHE-AAC(USAC) = CSFD 89% Názov: Přátelé / Friends S01E01 CzEnSk 1080p VVC(x.266) 2.0 xHE-AAC(USAC) = CSFD 89% Hodnocení: Stiahnut
    Pozriet Online
    Kategória:Seriál - Velikost:121.1 MB BitTorrent klient
    Pridaný: Súbory:
    Skontrolován:2024-07-08 Peerov:6 (Seed: 6, Leech: 0)
    Zaner:Komedie,Romanticky Uploader:Uvidis, az ked budes
    VIP
    Kúp nám Pivo 1,10€

    Kúp nám Pivo

    Pridaj do zalozky
    Pridaj do zalozky




    !!!   POZOR VAROVANI  !!!
    Toto je ukazkove video a audio ve VVC H.266 + xHE-AAC USAC kodecich.
    TUDIZ JE POTREBA POUZIT SPRAVNY PREHRAVAC
    (napr. MPV-VVCEasy Android nebo Windows).
    Obsahuje jen prvni dil serialu a asi NEbudu delat dalsi dily.
    Takze kdo chce at stahuje ale pak nebrecte.
    Pozn:
    -MPC-HC by mel umet VVC ale neumi xHE-AAC zvuk
    -Android 9 a Win11 22H2 a vyse umi systemove prehrat xHE-AAC ale neumi VVC
    -S MPV-VVCEasy Android nebo Windows to bezi ale v levnem tabletu 8core se to trha.
    - VLC nevim

    Friends - Pratele (seriál) dil S01E01
    Komedie

    Video: 1080p VVC (X.266) MKV
    Audio: Cz En Sk 2.0 xHE-AAC (USAC)
    Titulky: Cz En embeded
    Delka: 1 x 22 min

    Jsem pasiv

    https://www.csfd.cz/film/68928-pratele/prehled/

    Komedie / Romantický
    USA, (1994–2004), 86 h 32 min (Minutáž: 22 min)
    Tvůrci: David Crane, Marta Kauffman
    Režie: Kevin Bright, Gary Halvorson, Michael Lembeck, James Burrows (více)
    Scénář: David Crane, Marta Kauffman, Ted Cohen, Scott Silveri (více)
    Kamera: Nick McLean, Ken Lamkin, Richard Hissong, Mikel Neiers
    Hudba: Michael Skloff
    Hrají: Jennifer Aniston, Courteney Cox, Lisa Kudrow, Matt LeBlanc, Matthew Perry, David Schwimmer, James Michael Tyler, Elliott Gould, Christina Pickles

    Ponořte se do srdcí a myslí šestice přátel žijících v New Yorku, zkoumajících úzkosti a absurdity skutečné dospělosti. Tento sofistikovaný kultovní seriál nabízí veselý pohled na randění a práci ve velkoměstě. Jak si Rachel, Monica, Phoebe, Joey, Chandler a Ross dobře uvědomují, hledání štěstí často zdánlivě přináší mnohem více otázek než odpovědí. Zatímco se snaží dosáhnout vlastního naplnění, starají se jeden o druhého v této vzrušující době, kdy je možné úplně všechno – dokud máte přátele.


    MediaInfo:
    General
    Complete name             : Friends S01E01 CzEnSk 1080p VVC(x.266) 2.0 xHE-AAC(USAC).mkv
    Format                    : Matroska
    Format version            : Version 4
    File size                 : 121 MiB
    Duration                  : 21 min 49 s
    Overall bit rate          : 775 kb/s
    Encoded date              : UTC 2024-07-07 20:18:30
    Writing application       : mkvmerge v85.0 ('Shame For You') 64-bit
    Writing library           : libebml v1.4.5 + libmatroska v1.7.1

    Video
    ID                        : 1
    Format                    : V_QUICKTIME
    Codec ID                  : V_QUICKTIME
    Duration                  : 21 min 49 s
    Bit rate                  : 698 kb/s
    Width                     : 1 920 pixels
    Height                    : 1 080 pixels
    Display aspect ratio      : 16:9
    Frame rate mode           : Constant
    Frame rate                : 25.000 FPS
    Bits/(Pixel*Frame)        : 0.013
    Stream size               : 109 MiB (90%)
    Default                   : Yes
    Forced                    : No
    Color range               : Limited

    Audio #1
    ID                        : 2
    Format                    : USAC
    Format/Info               : Unified Speech and Audio Coding
    Commercial name           : xHE-AAC
    Codec ID                  : A_AAC-42
    Duration                  : 21 min 49 s
    Bit rate                  : 24.7 kb/s
    Channel(s)                : 2 channels
    Channel layout            : L R
    Sampling rate             : 48.0 kHz
    Frame rate                : 23.438 FPS (2048 SPF)
    Compression mode          : Lossy
    Stream size               : 3.85 MiB (3%)
    Language                  : Czech
    Default                   : Yes
    Forced                    : No
    Stream identifier         : 0
    Loudness info count       : 1
    Sample peak level         : -1.438 dBFS
    Program loudness          : -19.25 LKFS

    Audio #2
    ID                        : 3
    Format                    : USAC
    Format/Info               : Unified Speech and Audio Coding
    Commercial name           : xHE-AAC
    Codec ID                  : A_AAC-42
    Duration                  : 21 min 49 s
    Bit rate                  : 24.0 kb/s
    Channel(s)                : 2 channels
    Channel layout            : L R
    Sampling rate             : 48.0 kHz
    Frame rate                : 23.438 FPS (2048 SPF)
    Compression mode          : Lossy
    Stream size               : 3.74 MiB (3%)
    Language                  : English
    Default                   : No
    Forced                    : No
    Stream identifier         : 0
    Loudness info count       : 1
    Sample peak level         : -7.719 dBFS
    Program loudness          : -25.25 LKFS

    Audio #3
    ID                        : 4
    Format                    : USAC
    Format/Info               : Unified Speech and Audio Coding
    Commercial name           : xHE-AAC
    Codec ID                  : A_AAC-42
    Duration                  : 21 min 49 s
    Bit rate                  : 23.7 kb/s
    Channel(s)                : 2 channels
    Channel layout            : L R
    Sampling rate             : 48.0 kHz
    Frame rate                : 23.438 FPS (2048 SPF)
    Compression mode          : Lossy
    Stream size               : 3.70 MiB (3%)
    Language                  : Slovak
    Default                   : No
    Forced                    : No
    Stream identifier         : 0
    Loudness info count       : 1
    Sample peak level         : -2.969 dBFS
    Program loudness          : -20.25 LKFS

    Text #1
    ID                        : 5
    Format                    : UTF-8
    Codec ID                  : S_TEXT/UTF8
    Duration                  : 21 min 40 s
    Bit rate                  : 61 b/s
    Count of elements         : 329
    Stream size               : 9.77 KiB (0%)
    Language                  : Czech
    Default                   : No
    Forced                    : No

    Text #2
    ID                        : 6
    Format                    : UTF-8
    Codec ID                  : S_TEXT/UTF8
    Duration                  : 21 min 4 s
    Bit rate                  : 85 b/s
    Count of elements         : 366
    Stream size               : 13.2 KiB (0%)
    Language                  : English
    Default                   : No
    Forced                    : No







    SaiyansX, Threadt, Makima, maysa33, kanar9999, magic23,

    + Pridaj vlastnu verziu tohto torrentu +


    Upozornenie:
    Ziadny zo zobrazených súborov sa nenachádza na tomto serveri. Server slúzi len k síreniu vlastnorucne vytvorených aplikácií, videí, hudby ai. Autori stránok nenesú ziadnu zodpovednost za zverejnené odkazy, komentáre a obsah súborov. Vsetky komentáre, odkazy, súbory ktoré by svojou povahou mohli byt v rozpore zo zákonmi sem vkladáte na vlastnú zodpovednost. Autori stránok si vyhradzujú právo cenzúry odkazov, komentárov príp. súborov, ktoré by svojou povahou mohli byt v rozpore zo zákonmi a dobrými mravmi. Dodrzujte pravidlá!




    Uploader
    08/07/2024 17.03.14

    >> 08/07/2024 17.16.55
    UPLOADER: MPV-VVCEasy prehravac pro Win, Android, Linux na:
    https://github.com/MartinEesmaa/VVCEasy/blob/master/MPV.md
    Diky Threadtovi za upozorneni


    Back

    Na serveru se nenalézají zádne soubory. Za odkazy jsou výhradně zodpovědní uzivatelé a návstěvníci tohoto trackeru. Administrátor není zodpovědný za pridaný obsah ani za skody zpusobené uzivateli. Nesmíte pouzívat tuto webovou stránku pro distribuovaní nebo download zádného materiálu pokud nemáte povolení od príslusného vlastníka práv. Uzivatelé jsou zodpovědní za dodrzování těchto pravidel a podmínek. Owner má právo kdykoliv změnit pravidla tohoto trackeru.

    [ Script trval: 0.016 sec. ] - [ GZIP: enabled ]
    Je zhruba 14:54
    sql

    TOPlist