Tvoj účet nieje VIP.
Preto sú tvoje funkcie a možnosti značne obmedzené.
Pre aktiváciu VIP klikni sem.

Red Force (1986)[1080p] = CSFD 75% | SkTorrent.eu

Cz-SkTorrent open Tracker, na volné zdieľanie súborov. Pridajte sa k našej komunite a získajte prístup k tisícom torrentov.

  • vysoká rýchlosť
  • úplne zdarma
  • prevažne Slovenská a Česká scéna
  • ste tu s nami už 10 rokov - Ďakujeme
  • Vitaj Guest (Login) Ako stahovat
    torrenty?
    Torrenty:
    v1 textová
    v2 obrázková
    Ako sa stat
    Uploaderom
    Online
    Filmy
    Forum
    Pravidlá
    SkTSocial
    BitTorrent
    klient
    Meno: Heslo:
    Zaregistrovat
    Po zaregistrovaní mozte volne stahovat
    Zabudol som heslo

     Red Force (1986)[1080p] = CSFD 75% Názov: Red Force (1986)[1080p] = CSFD 75% Hodnocení: Stiahnut
    Pozriet Online
    Kategória:HD Filmy - Velikost:13.8 GB BitTorrent klient
    Pridaný: Súbory:
    Skontrolován:2024-05-13 Peerov:7 (Seed: 4, Leech: 3)
    Zaner:Akcni,Drama Uploader:Uvidis, az ked budes
    VIP
    Kúp nám Pivo 1,10€

    Kúp nám Pivo

    Pridaj do zalozky
    Pridaj do zalozky




    Ultra Force - Hivatásos gyilkosok
    Wong ga jin si / Royal Warriors
    In the Line of Duty / Police Assassin
    Hongkong Cop / Red Force
    1986




    [url]https://www.csfd.cz/film/29602-red-force/prehled/[/img]


    Další  (Extra): Více jazyků (Multi Language)

    Zvuky (Audio): Hungarian (VHS) (Videorent) Dolby AC3 stereo
                      Hungarian Narrator (VHS)
                      Chinese (Cantonese) Dolby TrueHD 7.1
                      Chinese (Cantonese) Dolby AC3 6ch
                      Chinese (Mandarin) Dolby AC3  6ch
                      Chinese (Cantonese) Dolby AC3 stereo
                      English AC3 6ch
                      English DTS
                      English (VHS)
                      German Dolby AC3 48000Hz stereo
                      French [fre]
                      Spanish (castilian)
                      Portuguese [por]
                      Czech (VHS)
                      Slovak (VHS)
                      Russian [rus]

    Titulky (subtitles): Hungarian Force, Hungarian, English, German
     French, Chinese, Czech, Romanian
     Hrvatska, Bosnia


    Barevná, maďarsky mluvící, hongkongská akce, 1986
    Režie: David Chang
    Herci: Michelle Yeoh Hiroyuki Sanada Michael Wong

    Policistka je přeložena do jiného města. Během letu se seznámí s budoucím policistou se svým kolegou a leteckým maršálem. Letadlo je obsazeno teroristy, ale podaří se jim odvrátit nebezpečí. Jeden z kamarádů útočníků jim ale přísahá pomstu.


    [img]https://cdn.sktorrent.eu/obrazky/6592e1285d5968073dec2009c085e71df5151cc5.jpg[img]






    https://www.imdb.com/title/tt0091229/


    Filmová upoutávka (Trailer):
    [url]https://www.youtube.com/watch?v=PqKNqQawSjQ[/img]
    https://www.youtube.com/watch?v=S48kv3KzZeg
    https://www.youtube.com/watch?v=unmy4qJDaf4


    Mediainfo
    General

    Complete name              : Royal.Warriors.1986.2xHun.1080p.BluRay.x264-Joe.mkv
    Format                         : Matroska
    Format version                 : Version 2
    File size                      : 13.2 GiB
    Duration                       : 1 h 36 min
    Overall bit rate mode          : Variable
    Overall bit rate               : 19.6 Mb/s
    Movie name                     : Royal.Warriors.1986.2xHun.1080p.BluRay.x264-Joe
    Encoded date                   : UTC 2023-01-11 14:23:43
    Writing application            : mkvmerge v4.3.0
    Writing library                : libebml v1.0.0 + libmatroska v1.0.0

    Video
    ID                             : 1
    Format                         : AVC
    Format/Info                    : Advanced Video Codec
    Format profile                 : High@L4
    Format settings                : CABAC / 2 Ref Frames
    Format settings, CABAC         : Yes
    Format settings, Reference fra : 2 frames
    Muxing mode                    : Header stripping
    Codec ID                       : V_MPEG4/ISO/AVC
    Duration                       : 1 h 36 min
    Nominal bit rate               : 12.0 Mb/s
    Width                          : 1 920 pixels
    Height                         : 1 080 pixels
    Display aspect ratio           : 16:9
    Frame rate mode                : Constant
    Frame rate                     : 23.976 (24000/1001) FPS
    Color space                    : YUV
    Chroma subsampling             : 4:2:0
    Bit depth                      : 8 bits
    Scan type                      : Progressive
    Bits/(Pixel*Frame)             : 0.241
    Title                          : Royal.Warriors.1986.2xHun.1080p.BluRay.x264-Joe
    Writing library                : x264 core 129
    Encoding settings              : cabac
    Language                       : Hungarian
    Default                        : Yes
    Forced                         : No


    Audio #1
    ID                             : 2
    Format                         : AC-3
    Format/Info                    : Audio Coding 3
    Commercial name                : Dolby Digital
    Muxing mode                    : Header stripping
    Codec ID                       : A_AC3
    Duration                       : 1 h 36 min
    Bit rate mode                  : Constant
    Bit rate                       : 256 kb/s
    Channel(s)                     : 2 channels
    Channel layout                 : L R
    Sampling rate                  : 48.0 kHz
    Frame rate                     : 31.250 FPS (1536 SPF)
    Compression mode               : Lossy
    Stream size                    : 176 MiB (1%)
    Title                          : Hungarian (VHS) (Videorent) Dolby AC3 stereo
    Language                       : Hungarian
    Service kind                   : Complete Main
    Default                        : Yes
    Forced                         : No

    Audio #2
    ID                             : 3
    Format                         : AC-3
    Format/Info                    : Audio Coding 3
    Commercial name                : Dolby Digital
    Muxing mode                    : Header stripping
    Codec ID                       : A_AC3
    Duration                       : 1 h 36 min
    Bit rate mode                  : Constant
    Bit rate                       : 192 kb/s
    Channel(s)                     : 2 channels
    Channel layout                 : L R
    Sampling rate                  : 48.0 kHz
    Frame rate                     : 31.250 FPS (1536 SPF)
    Compression mode               : Lossy
    Stream size                    : 132 MiB (1%)
    Title                          : Hungarian Narrator (VHS)
    Language                       : Hungarian
    Service kind                   : Complete Main
    Default                        : No
    Forced                         : No

    Audio #3
    ID                             : 4
    Format                         : MLP FBA
    Format/Info                    : Meridian Lossless Packing FBA
    Commercial name                : Dolby TrueHD
    Codec ID                       : A_TRUEHD
    Duration                       : 1 h 36 min
    Bit rate mode                  : Variable
    Maximum bit rate               : 4 125 kb/s
    Channel(s)                     : 8 channels
    Channel layout                 : L R C LFE Ls Rs Lb Rb
    Sampling rate                  : 48.0 kHz
    Frame rate                     : 1 200.000 FPS (40 SPF)
    Compression mode               : Lossless
    Title                          : Chinese (Cantonese) Dolby TrueHD 7.1
    Language                       : Chinese
    Default                        : No
    Forced                         : No

    Audio #4
    ID                             : 5
    Format                         : AC-3
    Format/Info                    : Audio Coding 3
    Commercial name                : Dolby Digital
    Format settings                : Dolby Surround EX
    Muxing mode                    : Header stripping
    Codec ID                       : A_AC3
    Duration                       : 1 h 36 min
    Bit rate mode                  : Constant
    Bit rate                       : 640 kb/s
    Channel(s)                     : 6 channels
    Channel layout                 : L R C LFE Ls Rs
    Sampling rate                  : 48.0 kHz
    Frame rate                     : 31.250 FPS (1536 SPF)
    Compression mode               : Lossy
    Stream size                    : 440 MiB (3%)
    Title                          : Chinese (Cantonese) Dolby AC3 6ch
    Language                       : Chinese
    Service kind                   : Complete Main
    Default                        : No
    Forced                         : No

    Audio #5
    ID                             : 6
    Format                         : AC-3
    Format/Info                    : Audio Coding 3
    Commercial name                : Dolby Digital
    Muxing mode                    : Header stripping
    Codec ID                       : A_AC3
    Duration                       : 1 h 36 min
    Bit rate mode                  : Constant
    Bit rate                       : 448 kb/s
    Channel(s)                     : 6 channels
    Channel layout                 : L R C LFE Ls Rs
    Sampling rate                  : 48.0 kHz
    Frame rate                     : 31.250 FPS (1536 SPF)
    Compression mode               : Lossy
    Stream size                    : 308 MiB (2%)
    Title                          : Chinese (Mandarin) Dolby AC3  6ch
    Language                       : Chinese
    Service kind                   : Complete Main
    Default                        : No
    Forced                         : No

    Audio #6
    ID                             : 7
    Format                         : AC-3
    Format/Info                    : Audio Coding 3
    Commercial name                : Dolby Digital
    Muxing mode                    : Header stripping
    Codec ID                       : A_AC3
    Duration                       : 1 h 36 min
    Bit rate mode                  : Constant
    Bit rate                       : 256 kb/s
    Channel(s)                     : 2 channels
    Channel layout                 : L R
    Sampling rate                  : 48.0 kHz
    Frame rate                     : 31.250 FPS (1536 SPF)
    Compression mode               : Lossy
    Stream size                    : 176 MiB (1%)
    Title                          : Chinese (Cantonese) Dolby AC3 stereo
    Language                       : Chinese
    Service kind                   : Complete Main
    Default                        : No
    Forced                         : No

    Audio #7
    ID                             : 8
    Format                         : AC-3
    Format/Info                    : Audio Coding 3
    Commercial name                : Dolby Digital
    Muxing mode                    : Header stripping
    Codec ID                       : A_AC3
    Duration                       : 1 h 36 min
    Bit rate mode                  : Constant
    Bit rate                       : 448 kb/s
    Channel(s)                     : 6 channels
    Channel layout                 : L R C LFE Ls Rs
    Sampling rate                  : 48.0 kHz
    Frame rate                     : 31.250 FPS (1536 SPF)
    Compression mode               : Lossy
    Delay relative to video        : 2 s 180 ms
    Stream size                    : 308 MiB (2%)
    Title                          : English AC3 6ch
    Language                       : English
    Service kind                   : Complete Main
    Default                        : No
    Forced                         : No

    Audio #8
    ID                             : 9
    Format                         : DTS
    Format/Info                    : Digital Theater Systems
    Muxing mode                    : Header stripping
    Codec ID                       : A_DTS
    Duration                       : 1 h 36 min
    Bit rate mode                  : Constant
    Bit rate                       : 1 509 kb/s
    Channel(s)                     : 6 channels
    Channel layout                 : C L R Ls Rs LFE
    Sampling rate                  : 48.0 kHz
    Frame rate                     : 93.750 FPS (512 SPF)
    Bit depth                      : 16 bits
    Compression mode               : Lossy
    Delay relative to video        : 2 s 222 ms
    Stream size                    : 1.01 GiB (8%)
    Title                          : English DTS
    Language                       : English
    Default                        : No
    Forced                         : No

    Audio #9
    ID                             : 10
    Format                         : AC-3
    Format/Info                    : Audio Coding 3
    Commercial name                : Dolby Digital
    Muxing mode                    : Header stripping
    Codec ID                       : A_AC3
    Duration                       : 1 h 36 min
    Bit rate mode                  : Constant
    Bit rate                       : 256 kb/s
    Channel(s)                     : 2 channels
    Channel layout                 : L R
    Sampling rate                  : 48.0 kHz
    Frame rate                     : 31.250 FPS (1536 SPF)
    Compression mode               : Lossy
    Stream size                    : 176 MiB (1%)
    Title                          : English (VHS) Dolby AC3 stereo
    Language                       : English
    Service kind                   : Complete Main
    Default                        : No
    Forced                         : No

    Audio #10
    ID                             : 11
    Format                         : AC-3
    Format/Info                    : Audio Coding 3
    Commercial name                : Dolby Digital
    Muxing mode                    : Header stripping
    Codec ID                       : A_AC3
    Duration                       : 1 h 36 min
    Bit rate mode                  : Constant
    Bit rate                       : 256 kb/s
    Channel(s)                     : 2 channels
    Channel layout                 : L R
    Sampling rate                  : 48.0 kHz
    Frame rate                     : 31.250 FPS (1536 SPF)
    Compression mode               : Lossy
    Stream size                    : 176 MiB (1%)
    Title                          : German Dolby AC3 48000Hz stereo
    Language                       : German
    Service kind                   : Complete Main
    Default                        : No
    Forced                         : No

    Audio #11
    ID                             : 12
    Format                         : AC-3
    Format/Info                    : Audio Coding 3
    Commercial name                : Dolby Digital
    Muxing mode                    : Header stripping
    Codec ID                       : A_AC3
    Duration                       : 1 h 36 min
    Bit rate mode                  : Constant
    Bit rate                       : 192 kb/s
    Channel(s)                     : 2 channels
    Channel layout                 : L R
    Sampling rate                  : 48.0 kHz
    Frame rate                     : 31.250 FPS (1536 SPF)
    Compression mode               : Lossy
    Stream size                    : 132 MiB (1%)
    Title                          : French
    Language                       : French
    Service kind                   : Complete Main
    Default                        : No
    Forced                         : No

    Audio #12
    ID                             : 13
    Format                         : AC-3
    Format/Info                    : Audio Coding 3
    Commercial name                : Dolby Digital
    Muxing mode                    : Header stripping
    Codec ID                       : A_AC3
    Duration                       : 1 h 36 min
    Bit rate mode                  : Constant
    Bit rate                       : 192 kb/s
    Channel(s)                     : 2 channels
    Channel layout                 : L R
    Sampling rate                  : 48.0 kHz
    Frame rate                     : 31.250 FPS (1536 SPF)
    Compression mode               : Lossy
    Stream size                    : 132 MiB (1%)
    Title                          : Spanish (castilian)
    Language                       : Spanish
    Service kind                   : Complete Main
    Default                        : No
    Forced                         : No

    Audio #13
    ID                             : 14
    Format                         : AC-3
    Format/Info                    : Audio Coding 3
    Commercial name                : Dolby Digital
    Muxing mode                    : Header stripping
    Codec ID                       : A_AC3
    Duration                       : 1 h 36 min
    Bit rate mode                  : Constant
    Bit rate                       : 192 kb/s
    Channel(s)                     : 2 channels
    Channel layout                 : L R
    Sampling rate                  : 48.0 kHz
    Frame rate                     : 31.250 FPS (1536 SPF)
    Compression mode               : Lossy
    Stream size                    : 132 MiB (1%)
    Title                          : Portuguese
    Language                       : Portuguese
    Service kind                   : Complete Main
    Default                        : No
    Forced                         : No

    Audio #14
    ID                             : 15
    Format                         : AC-3
    Format/Info                    : Audio Coding 3
    Commercial name                : Dolby Digital
    Muxing mode                    : Header stripping
    Codec ID                       : A_AC3
    Duration                       : 1 h 36 min
    Bit rate mode                  : Constant
    Bit rate                       : 192 kb/s
    Channel(s)                     : 2 channels
    Channel layout                 : L R
    Sampling rate                  : 48.0 kHz
    Frame rate                     : 31.250 FPS (1536 SPF)
    Compression mode               : Lossy
    Stream size                    : 132 MiB (1%)
    Title                          : Czech (VHS)
    Language                       : Czech
    Service kind                   : Complete Main
    Default                        : No
    Forced                         : No

    Audio #15
    ID                             : 16
    Format                         : AC-3
    Format/Info                    : Audio Coding 3
    Commercial name                : Dolby Digital
    Muxing mode                    : Header stripping
    Codec ID                       : A_AC3
    Duration                       : 1 h 36 min
    Bit rate mode                  : Constant
    Bit rate                       : 192 kb/s
    Channel(s)                     : 2 channels
    Channel layout                 : L R
    Sampling rate                  : 48.0 kHz
    Frame rate                     : 31.250 FPS (1536 SPF)
    Compression mode               : Lossy
    Stream size                    : 132 MiB (1%)
    Title                          : Slovak (VHS)
    Language                       : Slovak
    Service kind                   : Complete Main
    Default                        : No
    Forced                         : No

    Audio #16
    ID                             : 17
    Format                         : AC-3
    Format/Info                    : Audio Coding 3
    Commercial name                : Dolby Digital
    Muxing mode                    : Header stripping
    Codec ID                       : A_AC3
    Duration                       : 1 h 36 min
    Bit rate mode                  : Constant
    Bit rate                       : 192 kb/s
    Channel(s)                     : 2 channels
    Channel layout                 : L R
    Sampling rate                  : 48.0 kHz
    Frame rate                     : 31.250 FPS (1536 SPF)
    Compression mode               : Lossy
    Stream size                    : 132 MiB (1%)
    Title                          : Russian
    Language                       : Russian
    Service kind                   : Complete Main
    Default                        : No
    Forced                         : No

    Text #1
    ID                             : 18
    Format                         : UTF-8
    Codec ID                       : S_TEXT/UTF8
    Codec ID/Info                  : UTF-8 Plain Text
    Title                          : Hungarian Force
    Language                       : Hungarian
    Default                        : No
    Forced                         : Yes

    Text #2
    ID                             : 19
    Format                         : UTF-8
    Codec ID                       : S_TEXT/UTF8
    Codec ID/Info                  : UTF-8 Plain Text
    Title                          : Hungarian
    Language                       : Hungarian
    Default                        : No
    Forced                         : No

    Text #3
    ID                             : 20
    Format                         : UTF-8
    Codec ID                       : S_TEXT/UTF8
    Codec ID/Info                  : UTF-8 Plain Text
    Title                          : English
    Language                       : English
    Default                        : No
    Forced                         : No

    Text #4
    ID                             : 21
    Format                         : PGS
    Muxing mode                    : zlib
    Codec ID                       : S_HDMV/PGS
    Codec ID/Info                  : Picture based subtitle format used on BDs/HD-DVDs
    Title                          : English
    Language                       : English
    Default                        : No
    Forced                         : No

    Text #5
    ID                             : 22
    Format                         : UTF-8
    Codec ID                       : S_TEXT/UTF8
    Codec ID/Info                  : UTF-8 Plain Text
    Title                          : German
    Language                       : German
    Default                        : No
    Forced                         : No

    Text #6
    ID                             : 23
    Format                         : UTF-8
    Codec ID                       : S_TEXT/UTF8
    Codec ID/Info                  : UTF-8 Plain Text
    Title                          : French
    Language                       : French
    Default                        : No
    Forced                         : No

    Text #7
    ID                             : 24
    Format                         : PGS
    Muxing mode                    : zlib
    Codec ID                       : S_HDMV/PGS
    Codec ID/Info                  : Picture based subtitle format used on BDs/HD-DVDs
    Title                          : Chinese
    Language                       : Chinese
    Default                        : No
    Forced                         : No

    Text #8
    ID                             : 25
    Format                         : PGS
    Muxing mode                    : zlib
    Codec ID                       : S_HDMV/PGS
    Codec ID/Info                  : Picture based subtitle format used on BDs/HD-DVDs
    Title                          : Chinese
    Language                       : Chinese
    Default                        : No
    Forced                         : No

    Text #9
    ID                             : 26
    Format                         : UTF-8
    Codec ID                       : S_TEXT/UTF8
    Codec ID/Info                  : UTF-8 Plain Text
    Title                          : Czech
    Language                       : Czech
    Default                        : No
    Forced                         : No

    Text #10
    ID                             : 27
    Format                         : UTF-8
    Codec ID                       : S_TEXT/UTF8
    Codec ID/Info                  : UTF-8 Plain Text
    Title                          : Romanian
    Language                       : Romanian
    Default                        : No
    Forced                         : No

    Text #11
    ID                             : 28
    Format                         : UTF-8
    Codec ID                       : S_TEXT/UTF8
    Codec ID/Info                  : UTF-8 Plain Text
    Title                          : Hrvatska
    Language                       : Croatian
    Default                        : No
    Forced                         : No

    Text #12
    ID                             : 29
    Format                         : UTF-8
    Codec ID                       : S_TEXT/UTF8
    Codec ID/Info                  : UTF-8 Plain Text
    Title                          : Bosnia
    Language                       : Bosnian
    Default                        : No
    Forced                         : No



     








    EVE,

    + Pridaj vlastnu verziu tohto torrentu +


    Upozornenie:
    Ziadny zo zobrazených súborov sa nenachádza na tomto serveri. Server slúzi len k síreniu vlastnorucne vytvorených aplikácií, videí, hudby ai. Autori stránok nenesú ziadnu zodpovednost za zverejnené odkazy, komentáre a obsah súborov. Vsetky komentáre, odkazy, súbory ktoré by svojou povahou mohli byt v rozpore zo zákonmi sem vkladáte na vlastnú zodpovednost. Autori stránok si vyhradzujú právo cenzúry odkazov, komentárov príp. súborov, ktoré by svojou povahou mohli byt v rozpore zo zákonmi a dobrými mravmi. Dodrzujte pravidlá!





    0
    palo1989
    Ratio 0.11

    Clen

    13/05/2024 22.53.10
    prosim o dalse casti


    Back

    Na serveru se nenalézají zádne soubory. Za odkazy jsou výhradně zodpovědní uzivatelé a návstěvníci tohoto trackeru. Administrátor není zodpovědný za pridaný obsah ani za skody zpusobené uzivateli. Nesmíte pouzívat tuto webovou stránku pro distribuovaní nebo download zádného materiálu pokud nemáte povolení od príslusného vlastníka práv. Uzivatelé jsou zodpovědní za dodrzování těchto pravidel a podmínek. Owner má právo kdykoliv změnit pravidla tohoto trackeru.

    [ Script trval: 0.031 sec. ] - [ GZIP: enabled ]
    Je zhruba 23:13
    sql

    TOPlist