Tvoj účet nieje VIP.
Preto sú tvoje funkcie a možnosti značne obmedzené.
Pre aktiváciu VIP klikni sem.

Spider-Man 67-71 (ENG) = CSFD 56% | SkTorrent.eu

Cz-SkTorrent open Tracker, na volné zdieľanie súborov. Pridajte sa k našej komunite a získajte prístup k tisícom torrentov.

  • vysoká rýchlosť
  • úplne zdarma
  • prevažne Slovenská a Česká scéna
  • ste tu s nami už 10 rokov - Ďakujeme
  • Vitaj Guest (Login) Ako stahovat
    torrenty?
    Torrenty:
    v1 textová
    v2 obrázková
    Ako sa stat
    Uploaderom
    Online
    Filmy
    Forum
    Pravidlá
    SkTSocial
    BitTorrent
    klient
    Meno: Heslo:
    Zaregistrovat
    Po zaregistrovaní mozte volne stahovat
    Zabudol som heslo

     Spider-Man 67-71 (ENG) = CSFD 56% Názov: Spider-Man 67-71 (ENG) = CSFD 56% Hodnocení:N/A Stiahnut
    Pozriet Online
    Kategória:Seriál - Velikost:39.5 GB BitTorrent klient
    Pridaný: Súbory:
    Skontrolován:2024-06-29 Peerov:1 (Seed: 0, Leech: 1)
    Zaner:Animovany,Rodinny Uploader:Uvidis, az ked budes
    VIP
    Kúp nám Pivo 1,10€

    Kúp nám Pivo

    Pridaj do zalozky
    Pridaj do zalozky




    První z řady kreslených seriálů o Spider-Manovi, uvozený dnes již kultovní znělkou. Peter Parker alias Spider-Man se v sérii kratičkých epizod vrhá do boje proti řadě nepřátel, kteří ohrožují nejen pokojný život občanů, ale často i Spider-Manovu pověst. 
    Jazyk:English
    Hlavní
    Celý název a cesta                       : C:\Users\Tomáš\Downloads\Spider-man 1967 Eng\Serie1\1A - The Power Of Dr. Octopus.mkv
    Formát                                   : Matroska
    Format version                           : Version 4
    Velikost souboru                         : 398 MiB
    Duration                                 : 10 min 52 s
    Overall bit rate mode                    : Variable
    Celkový BitRate                          : 5 113 kb/s
    Frame rate                               : 24,000 FPS
    Encoded date                             : 2020-05-03 23:01:14 UTC
    Použitý software                         : mkvmerge v46.0.0 ('No Deeper Escape') 64-bit
    Enkódoval                                : libebml v1.3.10 + libmatroska v1.5.2

    Video
    ID                                       : 1
    ID in the original source medium         : 224 (0xE0)
    Formát                                   : MPEG Video
    Format version                           : Version 2
    Format profile                           : Main@Main
    Format settings                          : CustomMatrix / BVOP
    Format settings, BVOP                    : Ano
    Format settings, Matrix                  : Custom
    Format settings, GOP                     : Variable
    Codec ID                                 : V_MPEG2
    Codec ID/Info                            : MPEG 1 or 2 Video
    Duration                                 : 10 min 52 s
    Bit rate mode                            : Variable
    Bit rate                                 : 4 914 kb/s
    Maximum bit rate                         : 9 800 kb/s
    Šířka                                    : 720pixely
    Výška                                    : 480pixely
    Poměr stran                              : 4:3
    Frame rate mode                          : Variable
    Frame rate                               : 24,000 FPS
    Original frame rate                      : 23,976 (24000/1001) FPS
    Color space                              : YUV
    Chroma subsampling                       : 4:2:0
    Bit depth                                : 8 bits
    Scan type                                : Progressive
    Scan order                               : 2:3 Pulldown
    Compression mode                         : Lossy
    Bits/(Pixel*Frame)                       : 0.592
    Time code of first frame                 : 00:59:59;00
    Time code source                         : Group of pictures header
    GOP, Open/Closed                         : Open
    GOP, Open/Closed of first frame          : Closed
    Stream size                              : 382 MiB (96%)
    Jazyk                                    : English
    Default                                  : Ne
    Forced                                   : Ne
    Original source medium                   : DVD-Video

    Audio
    ID                                       : 2
    ID in the original source medium         : 189 (0xBD)128 (0x80)
    Formát                                   : AC-3
    Formát/Info                              : Audio Coding 3
    Commercial name                          : Dolby Digital
    Codec ID                                 : A_AC3
    Duration                                 : 10 min 52 s
    Bit rate mode                            : Constant
    Bit rate                                 : 192 kb/s
    Kanál(y)                                 : 2 kanály
    Channel layout                           : L R
    Sampling rate                            : 48,0 kHz
    Frame rate                               : 31,250 FPS (1536 SPF)
    Compression mode                         : Lossy
    Stream size                              : 14,9 MiB (4%)
    Titul                                    : Stereo
    Jazyk                                    : English
    Service kind                             : Complete Main
    Default                                  : Ano
    Forced                                   : Ne
    Original source medium                   : DVD-Video
    Dialog Normalization                     : -27 dB
    compr                                    : 5.74 dB
    dynrng                                   : -18.20 dB
    dsurmod                                  : Not Dolby Surround encoded
    mixlevel                                 : 285 dB
    roomtyp                                  : Small
    dialnorm_Average                         : -27 dB
    dialnorm_Minimum                         : -27 dB
    dialnorm_Maximum                         : -27 dB

    Text #1
    ID                                       : 3
    ID in the original source medium         : 189 (0xBD)32 (0x20)
    Formát                                   : VobSub
    Muxing mode                              : zlib
    Codec ID                                 : S_VOBSUB
    Codec ID/Info                            : Picture based subtitle format used on DVDs
    Duration                                 : 10 min 34 s
    Bit rate                                 : 6 747 b/s
    Frame rate                               : 0,302 FPS
    Count of elements                        : 192
    Stream size                              : 523 KiB (0%)
    Jazyk                                    : English
    Default                                  : Ano
    Forced                                   : Ne
    Original source medium                   : DVD-Video

    Text #2
    ID                                       : 4
    ID in the original source medium         : 224 (0xE0)
    Formát                                   : UTF-8
    Codec ID                                 : S_TEXT/UTF8
    Codec ID/Info                            : UTF-8 Plain Text
    Duration                                 : 10 min 34 s
    Bit rate                                 : 141 b/s
    Frame rate                               : 0,323 FPS
    Count of elements                        : 205
    Stream size                              : 11,0 KiB (0%)
    Jazyk                                    : English
    Default                                  : Ne
    Forced                                   : Ne
    Original source medium                   : DVD-Video

    Menu
    00:00:00.000                             : en:Chapter 01


    https://www.youtube.com/watch?v=bzUp49WZVqg

    https://www.csfd.cz/film/70197-spider-man/prehled/

     










    + Pridaj vlastnu verziu tohto torrentu +


    Upozornenie:
    Ziadny zo zobrazených súborov sa nenachádza na tomto serveri. Server slúzi len k síreniu vlastnorucne vytvorených aplikácií, videí, hudby ai. Autori stránok nenesú ziadnu zodpovednost za zverejnené odkazy, komentáre a obsah súborov. Vsetky komentáre, odkazy, súbory ktoré by svojou povahou mohli byt v rozpore zo zákonmi sem vkladáte na vlastnú zodpovednost. Autori stránok si vyhradzujú právo cenzúry odkazov, komentárov príp. súborov, ktoré by svojou povahou mohli byt v rozpore zo zákonmi a dobrými mravmi. Dodrzujte pravidlá!


    No comments...


    Back

    Na serveru se nenalézají zádne soubory. Za odkazy jsou výhradně zodpovědní uzivatelé a návstěvníci tohoto trackeru. Administrátor není zodpovědný za pridaný obsah ani za skody zpusobené uzivateli. Nesmíte pouzívat tuto webovou stránku pro distribuovaní nebo download zádného materiálu pokud nemáte povolení od príslusného vlastníka práv. Uzivatelé jsou zodpovědní za dodrzování těchto pravidel a podmínek. Owner má právo kdykoliv změnit pravidla tohoto trackeru.

    [ Script trval: 0.020 sec. ] - [ GZIP: enabled ]
    Je zhruba 04:27
    sql

    TOPlist