Tvoj účet nieje VIP.
Preto sú tvoje funkcie a možnosti značne obmedzené.
Pre aktiváciu VIP klikni sem.

2001 Vesmirna odysea / A Space Odyssey (1968)(CZ) = CSFD 80% | SkTorrent.eu

Cz-SkTorrent open Tracker, na volné zdielanie súborov. Pridajte sa k nasej komunite a získajte pristup k tisícom torrentov.

  • vysoká rýchlost
  • úplne zdarma
  • prevazne Slovenska a Ceska scena
  • ste tu s nami uz 5 rokov - Dakujeme
  • Vitaj Guest (Login) Ako stahovat
    torrenty?
    Torrenty:
    v1 textová
    v2 obrázková
    v3 online filmy
    Ako sa stat
    Uploaderom
    Online
    Filmy
    Forum
    Pravidlá
    BitTorrent
    klient
    pruzinky
    Meno: Heslo:
    Zaregistrovat
    Po zaregistrovaní mozte volne stahovat
    Zabudol som heslo

    Torrent's details
    2001 Vesmirna odysea /  A Space Odyssey (1968)(CZ) = CSFD 80% Názov:2001 Vesmirna odysea / A Space Odyssey (1968)(CZ) = CSFD 80% Hodnocení: Stiahnut
    Pozriet Online
    Kategória:Filmy CZ/SK dabing Velikost:1.4 GB BitTorrent klient
    Pridaný: Súbory:
    Skontrolován:2014-02-15 Peerov:0 (Seed: 0, Leech: 0)
    Zaner:Dobrodruzny,Mysteriozni,Sci-Fi Uploader:Uvidis, az ked budes
    VIP
    Kúp nám Pivo 1,10€

    Kúp nám Pivo
    Podporte nas na Facebooku !
    Pridaj do zalozky
    Pridaj do zalozky







    Jazyk: CZ
    Titulky: ne
    Kvalita zvuku: AC 3,  2 kanály,  192 Kbps, 48 KHz
    Kvalita videa: XviD,  720x336, 1171 Kbps
    Odkaz na CSFD: http://www.csfd.cz/film/5393-2001-vesmirna-odysea-2001-a-space-odyssey/
    Rok vydání: 1968
    Délka: 141min
    Žánr: sci-fi
    Screen:


    OBSAH:
    Píše se rok 2001. Lety do vesmíru jsou samozřejmostí a pozvolné osídlování nejbližších planet a měsíců již také není nijak zvláštním jevem. Vědomosti o vesmíru však zatím nejsou tak hluboké, jak si mnozí představují a když se objeví něco prapodivného, o čem nikdo nic neví, je potřeba to, v zájmu zachování pořádku, utajit.
    Zmíněnou prapodivnou věcí, je zvláštní útvar objevený na Měsíci, který vysílá tak intenzivní magnetické pole, že v jeho blízkosti člověk přiliš dlouho nevydrží. Po zjištění, že je tento vysílač nasměrován k Jupiteru, je o několik let později vyslána vesmírná loď Discovery, aby záhadu rozluštila. Pěti, vlastně šestičlennou posádku tvoří tři hibernovaní vědci, kteří se mají záhadou zabývat až po přistání na Jupiteru, dva piloti, kteří mají naopak na starost cestu a zcela přesný a neomylný počítač HAL9000, který celou loď řídí. Vše se vyvíjí podle plánu, dokud není cesta narušena zcela nečekanými rozhodnutími palubního počítače, která nakonec poslání mise pohřbí.
    Media Info:General
    Complete name: C:2001 Vesmirna odysea CZ.avi
    Format: AVI
    Format/Info: Audio Video Interleave
    File size: 1.37 GiB
    Duration: 2h 22mn
    Overall bit rate: 1 370 Kbps
    Writing application: VirtualDubMod 1.5.4.1 (build 2178/release)
    Writing library: VirtualDubMod build 2178/release

    Video
    ID: 0
    Format: MPEG-4 Visual
    Format profile: Simple@L3
    Format settings, BVOP: Yes
    Format settings, QPel: No
    Format settings, GMC: No warppoints
    Format settings, Matrix: Custom
    Codec ID: XVID
    Codec ID/Hint: XviD
    Duration: 2h 22mn
    Bit rate: 1 171 Kbps
    Width: 720 pixels
    Height: 336 pixels
    Display aspect ratio: 2.2:1
    Frame rate: 25.000 fps
    Resolution: 8 bits
    Colorimetry: 4:2:0
    Scan type: Progressive
    Bits/(Pixel*Frame): 0.194
    Stream size: 1.17 GiB (85%)
    Writing library: XviD 1.0.1 (UTC 2004-06-05)

    Audio
    ID: 1
    Format: AC-3
    Format/Info: Audio Coding 3
    Codec ID: 2000
    Duration: 2h 22mn
    Bit rate mode: Constant
    Bit rate: 192 Kbps
    Channel(s): 2 channels
    Channel positions: L R
    Sampling rate: 48.0 KHz
    Stream size: 196 MiB (14%)
    Alignment: Aligned on interleaves
    Interleave, duration: 96 ms (2.40 video frames)
    Interleave, preload duration: 96 ms
    Language: Czech







    Upozornenie:
    Ziadny zo zobrazených súborov sa nenachádza na tomto serveri. Server slúzi len k síreniu vlastnorucne vytvorených aplikácií, videí, hudby ai. Autori stránok nenesú ziadnu zodpovednost za zverejnené odkazy, komentáre a obsah súborov. Vsetky komentáre, odkazy, súbory ktoré by svojou povahou mohli byt v rozpore zo zákonmi sem vkladáte na vlastnú zodpovednost. Autori stránok si vyhradzujú právo cenzúry odkazov, komentárov príp. súborov, ktoré by svojou povahou mohli byt v rozpore zo zákonmi a dobrými mravmi. Dodrzujte pravidlá!


    No comments...


    Back

    Na serveru se nenalézají zádne soubory. Za odkazy jsou výhradně zodpovědní uzivatelé a návstěvníci tohoto trackeru. Administrátor není zodpovědný za pridaný obsah ani za skody zpusobené uzivateli. Rozsirovat stránku nebo její obsah bez souhlasu ownera je zakázano. Nesmíte pouzívat tuto webovou stránku pro distribuovaní nebo download zádného materiálu pokud nemáte povolení od príslusného vlastníka práv. Uzivatelé jsou zodpovědní za dodrzování těchto pravidel a podmínek. Owner má právo kdykoliv změnit pravidla tohoto trackeru.

    [ Script trval: 0.037 sec. ] - [ GZIP: enabled ]
    BtiTracker (1.4.8) by Btiteam
    Je zhruba 08:54

    TOPlist