Tvoj účet nieje VIP.
Preto sú tvoje funkcie a možnosti značne obmedzené.
Pre aktiváciu VIP klikni sem.

42 (2013)(CZ) = CSFD 77% | SkTorrent.eu

Cz-SkTorrent open Tracker, na volné zdielanie súborov. Pridajte sa k nasej komunite a získajte pristup k tisícom torrentov.

  • vysoká rýchlost
  • úplne zdarma
  • prevazne Slovenska a Ceska scena
  • ste tu s nami uz 5 rokov - Dakujeme
  • Vitaj Guest (Login) Ako stahovat
    torrenty?
    Torrenty:
    v1 textová
    v2 obrázková
    Ako sa stat
    Uploaderom
    Online
    Filmy
    Forum
    Pravidlá
    BitTorrent
    klient
    Meno: Heslo:
    Zaregistrovat
    Po zaregistrovaní mozte volne stahovat
    Zabudol som heslo

    42 (2013)(CZ) = CSFD 77% Názov:42 (2013)(CZ) = CSFD 77% Hodnocení:N/A Stiahnut
    Pozriet Online
    Kategória:Filmy CZ/SK dabing Velikost:725.5 MB BitTorrent klient
    Pridaný: Súbory:
    Skontrolován:2014-02-09 Peerov:0 (Seed: 0, Leech: 0)
    Zaner:Drama,Sportovni Uploader:Uvidis, az ked budes
    VIP
    Kúp nám Pivo 1,10€

    Kúp nám Pivo
    Pridaj do zalozky
    Pridaj do zalozky







    ČSFD: http://www.csfd.cz/film/311865-42
    http://www.csfd.cz/film/311865-42/




    Jazyk: CZ
    Titulky: Ne
    Rok vydání: USA, 2013
    Délka: 128 min.
    Žánr: Drama / Životopisný / Sportovní




    Format: AVI
    Format/Info: Audio Video Interleave
    File size: 726 MiB
    Duration: 2h 8mn
    Overall bit rate mode: Variable
    Overall bit rate: 791 Kbps
    Movie name: 3LT0N
    Writing application: VirtualDubMod 1.5.10.2 (build 2540/release)
    Writing library: VirtualDubMod build 2540/release

    Video
    ID: 0
    Format: MPEG-4 Visual
    Format profile: Advanced Simple@L5
    Format settings, BVOP: 2
    Format settings, QPel: Yes
    Format settings, GMC: No warppoints
    Format settings, Matrix: Default (MPEG)
    Codec ID: XVID
    Duration: 2h 8mn
    Bit rate: 654 Kbps
    Width: 640 pixels
    Height: 272 pixels
    Display aspect ratio: 2.35:1
    Frame rate: 23.976 fps
    Color space: YUV
    Chroma subsampling: 4:2:0
    Bit depth: 8 bits
    Scan type: Progressive
    Compression mode: Lossy
    Bits/(Pixel*Frame): 0.157
    Stream size: 599 MiB (83%)
    Writing library: XviD 1.2.1 (UTC 2008-12-04)

    Audio
    ID: 1
    Format: MPEG Audio
    Format version: Version 1
    Format profile: Layer 3
    Mode: Joint stereo
    Mode extension: MS Stereo
    Codec ID: 55
    Codec ID/Hint: MP3
    Duration: 2h 8mn
    Bit rate mode: Variable
    Bit rate: 128 Kbps
    Channel(s): 2 channels
    Sampling rate: 44.1 KHz
    Compression mode: Lossy
    Stream size: 117 MiB (16%)
    Alignment: Split accross interleaves
    Interleave, duration: 42 ms (1.00 video frame)
    Interleave, preload duration: 500 ms
    Writing library: LAME3.99.5



    Režie: Brian Helgeland
    Scénář: Brian Helgeland
    Kamera: Don Burgess
    Hudba: Mark Isham
    Hrají: Chadwick Boseman, Harrison Ford, Christopher Meloni, Lucas Black, Nicole Beharie, Alan Tudyk, John C. McGinley, T.R. Knight, Ryan Merriman, Max Gail, Jud Tylor, Brett Cullen, Toby Huss, Brad Beyer, Hamish Linklater, Sean Nix, Tim Ware, James Pickens Jr., Matt Clark, Mark Harelik, Peter Jurasik, Danny Vinson, Rhoda Griffis, Mark Is... (více)

    Obsah: Film podle skutečné události popisuje příběh Jacka Roosevelta "Jackie" Robinsona (Chadwick Boseman), který se stal prvním černochem v historii, který kdy hrál nejvyšší americkou baseballovou soutěž Major League Baseball za tým newyorský Brooklyn Dodgers pod vedením Branch Rickey (Harrison Ford)













    ONLINE




    Upozornenie:
    Ziadny zo zobrazených súborov sa nenachádza na tomto serveri. Server slúzi len k síreniu vlastnorucne vytvorených aplikácií, videí, hudby ai. Autori stránok nenesú ziadnu zodpovednost za zverejnené odkazy, komentáre a obsah súborov. Vsetky komentáre, odkazy, súbory ktoré by svojou povahou mohli byt v rozpore zo zákonmi sem vkladáte na vlastnú zodpovednost. Autori stránok si vyhradzujú právo cenzúry odkazov, komentárov príp. súborov, ktoré by svojou povahou mohli byt v rozpore zo zákonmi a dobrými mravmi. Dodrzujte pravidlá!


    No comments...


    Back

    Na serveru se nenalézají zádne soubory. Za odkazy jsou výhradně zodpovědní uzivatelé a návstěvníci tohoto trackeru. Administrátor není zodpovědný za pridaný obsah ani za skody zpusobené uzivateli. Nesmíte pouzívat tuto webovou stránku pro distribuovaní nebo download zádného materiálu pokud nemáte povolení od príslusného vlastníka práv. Uzivatelé jsou zodpovědní za dodrzování těchto pravidel a podmínek. Owner má právo kdykoliv změnit pravidla tohoto trackeru.

    [ Script trval: 0.022 sec. ] - [ GZIP: enabled ]
    Je zhruba 08:07
    memcache

    TOPlist