Tvoj účet nieje VIP.
Preto sú tvoje funkcie a možnosti značne obmedzené.
Pre aktiváciu VIP klikni sem.

47 Roninu / 47 Ronin (2013)(CZ/EN)(2160p 4K BDRemux)(HDR10) = CSFD 65% | SkTorrent.eu

Cz-SkTorrent open Tracker, na volné zdieľanie súborov. Pridajte sa k našej komunite a získajte prístup k tisícom torrentov.

  • vysoká rýchlosť
  • úplne zdarma
  • prevažne Slovenská a Česká scéna
  • ste tu s nami už 10 rokov - Ďakujeme
  • Vitaj Guest (Login) Ako stahovat
    torrenty?
    Torrenty:
    v1 textová
    v2 obrázková
    Ako sa stat
    Uploaderom
    Online
    Filmy
    Forum
    Pravidlá
    SkTSocial
    BitTorrent
    klient
    Meno: Heslo:
    Zaregistrovat
    Po zaregistrovaní mozte volne stahovat
    Zabudol som heslo

    47 Roninu / 47 Ronin (2013)(CZ/EN)(2160p 4K BDRemux)(HDR10) = CSFD 65% Názov:47 Roninu / 47 Ronin (2013)(CZ/EN)(2160p 4K BDRemux)(HDR10) = CSFD 65% Hodnocení: Stiahnut
    Pozriet Online
    Kategória:UHD Filmy - Velikost:50.0 GB BitTorrent klient
    Pridaný: Súbory:
    Skontrolován:2024-06-11 Peerov:13 (Seed: 13, Leech: 0)
    Zaner:Akcni,Dobrodruzny,Fantasy Uploader:Uvidis, az ked budes
    VIP
    Kúp nám Pivo 1,10€

    Kúp nám Pivo

    Pridaj do zalozky
    Pridaj do zalozky






    47 Ronin

    47 Roninu

    (2013)(CZ/EN) = CSFD 65%


    2160p 4K UHD BDRemux – 60.4 Mb/s Bitrate verzia









    Video: 2160p 4K UHD - HDR10
    Jazyk: CZ 5.1 DTS / CZ 5.1 DD / EN 5.1 DD / EN 7.1 DTS XXL
    Titulky: CZ / EN
    Akcni / Fantasy / Dobrodruzny
    USA  2013
    118 min


    PRODUKCE & HERCI


    Režie: Carl Rinsch
    Scénář: Hossein Amini, Chris Morgan
    Kamera: John Mathieson
    Hudba: Ilan Eshkeri
    Hrají: (Keanu Reeves - ), Hirojuki Sanada, Tadanobu Asano, Kó Šibasaki, Rinko Kikuči, Džin Akaniši, Togo Igawa, Cary-Hiroyuki Tagawa, Neil Fingleton, Yorick van Wageningen, Min Tanaka, Rick Genest, Masaši Fudžimoto, Haruka Abe, Masayoshi Haneda, Jozef Aoki, Clem So, Tanroh Ishida, Isky Fay, Šú Nakadžima, Junichi Kajioka, Masajuki Deai, Victoria Grace, Stephen Stanton, Yuriri Naka



    OBSAH

    Rónin je samuraj, který ztratil svého pána a tím i svou čest, a jeho postavení na společenském žebříčku středověkého Japonska tomu odpovídá. Ještě mnohem níž však stojí lidé smíšené rasy, mezi něž patří i nalezenec Kai ((Keanu Reeves - )), zčásti Brit, zčásti Japonec. Díky svým mimořádným schopnostem je vzat na milost skupinou bývalých samurajů, jejichž pán se stal obětí spiknutí, které připravili zákeřný Lord Kira a čarodějka Mizuki. Róninové chtějí Lorda Kiru porazit za každou cenu, jenže trumfy rozhodně nejsou na jejich straně. Dokud nezískají Kaie. I tak ale bude cesta za spravedlivou odplatou trnitá a jen málokdo z nich po ní dojde až do konce, který navíc může mít v souladu s japonskými tradicemi velmi trpkou příchuť.


    SCREEN




    TRAILER




    Formát                                   : Matroska
    Format version                           : Version 4
    Velikost souboru                         : 50,0 GiB
    Duration                                 : 1 h 58 min
    Overall bit rate mode                    : Variable
    Celkový BitRate                          : 60,4 Mb/s
    Encoded date                             : UTC 2024-06-11 07:13:47
    Použitý software                         : mkvmerge v82.0 ('I'm The President') 64-bit
    Enkódoval                                : libebml v1.4.5 + libmatroska v1.7.1

    Video
    ID                                       : 1
    Formát                                   : HEVC
    Formát/Info                              : High Efficiency Video Coding
    Format profile                           : Main 10@L5.1@High
    HDR format                               : SMPTE ST 2086, HDR10 compatible
    Codec ID                                 : V_MPEGH/ISO/HEVC
    Duration                                 : 1 h 58 min
    Bit rate                                 : 51,8 Mb/s
    Šířka                                    : 3 840pixely
    Výška                                    : 2 160pixely
    Poměr stran                              : 16:9
    Frame rate mode                          : Constant
    Frame rate                               : 23,976 (24000/1001) FPS
    Color space                              : YUV
    Chroma subsampling                       : 4:2:0 (Type 2)
    Bit depth                                : 10 bits
    Bits/(Pixel*Frame)                       : 0.260
    Stream size                              : 42,9 GiB (86%)
    Enkódoval                                : ATEME Titan File 3.9.0 (4.9.0.0)        
    Jazyk                                    : English
    Default                                  : Ano
    Forced                                   : Ano
    Color range                              : Limited
    Color primaries                          : BT.2020
    Transfer characteristics                 : PQ
    Matrix coefficients                      : BT.2020 non-constant
    Mastering display color primaries        : Display P3
    Mastering display luminance              : min: 0.0050 cd/m2, max: 1000 cd/m2
    Maximum Content Light Level              : 728 cd/m2
    Maximum Frame-Average Light Level        : 279 cd/m2

    Audio #1
    ID                                       : 2
    Formát                                   : AC-3
    Formát/Info                              : Audio Coding 3
    Commercial name                          : Dolby Digital
    Codec ID                                 : A_AC3
    Duration                                 : 1 h 58 min
    Bit rate mode                            : Constant
    Bit rate                                 : 640 kb/s
    Kanál(y)                                 : 6 kanály
    Channel layout                           : L R C LFE Ls Rs
    Sampling rate                            : 48,0 kHz
    Frame rate                               : 31,250 FPS (1536 SPF)
    Compression mode                         : Lossy
    Stream size                              : 543 MiB (1%)
    Jazyk                                    : Czech
    Service kind                             : Complete Main
    Default                                  : Ne
    Forced                                   : Ne

    Audio #2
    ID                                       : 3
    Formát                                   : DTS XLL X
    Formát/Info                              : Digital Theater Systems
    Commercial name                          : DTS-HD Master Audio
    Codec ID                                 : A_DTS
    Duration                                 : 1 h 58 min
    Bit rate mode                            : Variable
    Bit rate                                 : 6 543 kb/s
    Kanál(y)                                 : 8 kanály
    Channel(s)_Original                      : Object Based
    ChannelLayout_Original                   : Object Based
    Sampling rate                            : 48,0 kHz
    Frame rate                               : 93,750 FPS (512 SPF)
    Bit depth                                : 24 bits
    Stream size                              : 5,42 GiB (11%)
    Jazyk                                    : English
    Default                                  : Ano
    Forced                                   : Ano

    Audio #3
    ID                                       : 4
    Formát                                   : AC-3
    Formát/Info                              : Audio Coding 3
    Commercial name                          : Dolby Digital
    Codec ID                                 : A_AC3
    Duration                                 : 1 h 58 min
    Bit rate mode                            : Constant
    Bit rate                                 : 640 kb/s
    Kanál(y)                                 : 6 kanály
    Channel layout                           : L R C LFE Ls Rs
    Sampling rate                            : 48,0 kHz
    Frame rate                               : 31,250 FPS (1536 SPF)
    Compression mode                         : Lossy
    Stream size                              : 543 MiB (1%)
    Jazyk                                    : English
    Service kind                             : Complete Main
    Default                                  : Ne
    Forced                                   : Ne

    Audio #4
    ID                                       : 5
    Formát                                   : DTS
    Formát/Info                              : Digital Theater Systems
    Codec ID                                 : A_DTS
    Duration                                 : 1 h 58 min
    Bit rate mode                            : Constant
    Bit rate                                 : 768 kb/s
    Kanál(y)                                 : 6 kanály
    Channel layout                           : C L R Ls Rs LFE
    Sampling rate                            : 48,0 kHz
    Frame rate                               : 93,750 FPS (512 SPF)
    Bit depth                                : 24 bits
    Compression mode                         : Lossy
    Stream size                              : 652 MiB (1%)
    Jazyk                                    : Czech
    Default                                  : Ne
    Forced                                   : Ne

    Text #1
    ID                                       : 6
    Formát                                   : PGS
    Muxing mode                              : zlib
    Codec ID                                 : S_HDMV/PGS
    Codec ID/Info                            : Picture based subtitle format used on BDs/HD-DVDs
    Duration                                 : 1 h 47 min
    Bit rate                                 : 16,8 kb/s
    Count of elements                        : 1484
    Stream size                              : 13,0 MiB (0%)
    Jazyk                                    : English
    Default                                  : Ano
    Forced                                   : Ano

    Text #2
    ID                                       : 7
    Formát                                   : PGS
    Muxing mode                              : zlib
    Codec ID                                 : S_HDMV/PGS
    Codec ID/Info                            : Picture based subtitle format used on BDs/HD-DVDs
    Duration                                 : 1 h 57 min
    Bit rate                                 : 13,4 kb/s
    Count of elements                        : 1218
    Stream size                              : 11,3 MiB (0%)
    Jazyk                                    : Czech
    Default                                  : Ne
    Forced                                   : Ne

    Text #3
    ID                                       : 8
    Formát                                   : UTF-8
    Codec ID                                 : S_TEXT/UTF8
    Codec ID/Info                            : UTF-8 Plain Text
    Duration                                 : 1 h 48 min
    Bit rate                                 : 25 b/s
    Count of elements                        : 671
    Stream size                              : 20,2 KiB (0%)
    Jazyk                                    : Czech
    Default                                  : Ano
    Forced                                   : Ne





    VDAKA ZA BODY a SEEDUJTE






    ONLINE











    CarolinaReaper, maysa33, AG-Kronik, Blumeryx, faco, Tokamak, Roman-Kratochvil,

    + Pridaj vlastnu verziu tohto torrentu +


    Upozornenie:
    Ziadny zo zobrazených súborov sa nenachádza na tomto serveri. Server slúzi len k síreniu vlastnorucne vytvorených aplikácií, videí, hudby ai. Autori stránok nenesú ziadnu zodpovednost za zverejnené odkazy, komentáre a obsah súborov. Vsetky komentáre, odkazy, súbory ktoré by svojou povahou mohli byt v rozpore zo zákonmi sem vkladáte na vlastnú zodpovednost. Autori stránok si vyhradzujú právo cenzúry odkazov, komentárov príp. súborov, ktoré by svojou povahou mohli byt v rozpore zo zákonmi a dobrými mravmi. Dodrzujte pravidlá!


    No comments...


    Back

    Na serveru se nenalézají zádne soubory. Za odkazy jsou výhradně zodpovědní uzivatelé a návstěvníci tohoto trackeru. Administrátor není zodpovědný za pridaný obsah ani za skody zpusobené uzivateli. Nesmíte pouzívat tuto webovou stránku pro distribuovaní nebo download zádného materiálu pokud nemáte povolení od príslusného vlastníka práv. Uzivatelé jsou zodpovědní za dodrzování těchto pravidel a podmínek. Owner má právo kdykoliv změnit pravidla tohoto trackeru.

    [ Script trval: 0.032 sec. ] - [ GZIP: enabled ]
    Je zhruba 01:24
    sql

    TOPlist