Tvoj účet nieje VIP.
Preto sú tvoje funkcie a možnosti značne obmedzené.
Pre aktiváciu VIP klikni sem.

8. mile / 8 Mile (2002) CZ.EN.DTS.HDR.Surround.Blu-Ray.Remux.2160p = CSFD 72% | SkTorrent.eu

Cz-SkTorrent open Tracker, na volné zdielanie súborov. Pridajte sa k nasej komunite a získajte pristup k tisícom torrentov.

  • vysoká rýchlost
  • úplne zdarma
  • prevazne Slovenska a Ceska scena
  • ste tu s nami uz 5 rokov - Dakujeme
  • Vitaj Guest (Login) Ako stahovat
    torrenty?
    Torrenty:
    v1 textová
    v2 obrázková
    Ako sa stat
    Uploaderom
    Online
    Filmy
    Forum
    Pravidlá
    BitTorrent
    klient
    Meno: Heslo:
    Zaregistrovat
    Po zaregistrovaní mozte volne stahovat
    Zabudol som heslo

    8. mile / 8 Mile (2002) CZ.EN.DTS.HDR.Surround.Blu-Ray.Remux.2160p = CSFD 72% Názov:8. mile / 8 Mile (2002) CZ.EN.DTS.HDR.Surround.Blu-Ray.Remux.2160p = CSFD 72% Hodnocení: Stiahnut
    Pozriet Online
    Kategória:UHD Filmy Velikost:64.9 GB BitTorrent klient
    Pridaný: Súbory:
    Skontrolován:2022-11-12 Peerov:8 (Seed: 7, Leech: 1)
    Zaner:Drama,Hudebni Uploader:Uvidis, az ked budes
    VIP
    Kúp nám Pivo 1,10€

    Kúp nám Pivo
    Pridaj do zalozky
    Pridaj do zalozky













    Video: 2160p HDR MKV HEVC
    Audio : CZ/EN Dabing - viz MediaInfo
    Titulky : CZ/EN + CZ forced -viz MediaInfo


    Drama / Hudební
    USA / Německo, 2002, 110 min





    Náhled 8 Mile






    Film 8 Mile je o týdnu života skupiny mladých lidí, kteří se snaží najít svoji cestu v Detroitu roku 1995.

    Pro lidi jako Jimmy "Rabbit" Smith (Eminem) a jeho přátele, je hip hop jediným způsobem vyjádření se mezi sebou.

    Rabbit ví, že jediná jízdenka ven je přes jeho rýmy, ale aby zvítězil, musí převést svůj vztek do veršů a postavit se svému životu tváří v tvář. (Magic Box)



    Formát                                   : Matroska
    Format version                           : Version 4
    Velikost souboru                         : 64,9 GiB
    Duration                                 : 1 h 50 min
    Overall bit rate mode                    : Variable
    Celkový BitRate                          : 84,1 Mb/s
    Encoded date                             : UTC 2022-11-11 19:03:13
    Použitý software                         : mkvmerge v67.0.0 ('Under Stars') 64-bit
    Enkódoval                                : libebml v1.4.2 + libmatroska v1.6.4

    Video
    ID                                       : 1
    Formát                                   : HEVC
    Formát/Info                              : High Efficiency Video Coding
    Format profile                           : Main 10@L5.1@High
    HDR format                               : SMPTE ST 2086, HDR10 compatible
    Codec ID                                 : V_MPEGH/ISO/HEVC
    Duration                                 : 1 h 50 min
    Bit rate                                 : 72,4 Mb/s
    Šířka                                    : 3 840pixely
    Výška                                    : 2 160pixely
    Poměr stran                              : 16:9
    Frame rate mode                          : Constant
    Frame rate                               : 23,976 (24000/1001) FPS
    Color space                              : YUV
    Chroma subsampling                       : 4:2:0 (Type 2)
    Bit depth                                : 10 bits
    Bits/(Pixel*Frame)                       : 0.364
    Stream size                              : 55,9 GiB (86%)
    Enkódoval                                : ATEME Titan File 3.9.6 (4.9.6.2)        
    Default                                  : Ano
    Forced                                   : Ne
    Color range                              : Limited
    Color primaries                          : BT.2020
    Transfer characteristics                 : PQ
    Matrix coefficients                      : BT.2020 non-constant
    Mastering display color primaries        : Display P3
    Mastering display luminance              : min: 0.0050 cd/m2, max: 1000 cd/m2
    Maximum Content Light Level              : 1000 cd/m2
    Maximum Frame-Average Light Level        : 110 cd/m2

    Audio #1
    ID                                       : 2
    Formát                                   : AC-3
    Formát/Info                              : Audio Coding 3
    Commercial name                          : Dolby Digital
    Codec ID                                 : A_AC3
    Duration                                 : 1 h 50 min
    Bit rate mode                            : Constant
    Bit rate                                 : 384 kb/s
    Kanál(y)                                 : 6 kanály
    Channel layout                           : L R C LFE Ls Rs
    Sampling rate                            : 48,0 kHz
    Frame rate                               : 31,250 FPS (1536 SPF)
    Compression mode                         : Lossy
    Stream size                              : 303 MiB (0%)
    Titul                                    : DD 5.1 CZ
    Jazyk                                    : Czech
    Service kind                             : Complete Main
    Default                                  : Ano
    Forced                                   : Ne

    Audio #2
    ID                                       : 3
    Formát                                   : DTS XLL X
    Formát/Info                              : Digital Theater Systems
    Commercial name                          : DTS-HD Master Audio
    Codec ID                                 : A_DTS
    Duration                                 : 1 h 50 min
    Bit rate mode                            : Variable
    Bit rate                                 : 5 650 kb/s
    Kanál(y)                                 : 8 kanály
    Channel(s)_Original                      : Object Based
    ChannelLayout_Original                   : Object Based
    Sampling rate                            : 48,0 kHz
    Frame rate                               : 93,750 FPS (512 SPF)
    Bit depth                                : 24 bits
    Stream size                              : 4,36 GiB (7%)
    Titul                                    : DTS-X 7.1 Remix
    Jazyk                                    : English
    Default                                  : Ne
    Forced                                   : Ne

    Audio #3
    ID                                       : 4
    Formát                                   : DTS
    Formát/Info                              : Digital Theater Systems
    Codec ID                                 : A_DTS
    Duration                                 : 1 h 50 min
    Bit rate mode                            : Constant
    Bit rate                                 : 1 509 kb/s
    Kanál(y)                                 : 6 kanály
    Channel layout                           : C L R Ls Rs LFE
    Sampling rate                            : 48,0 kHz
    Frame rate                               : 93,750 FPS (512 SPF)
    Bit depth                                : 24 bits
    Compression mode                         : Lossy
    Stream size                              : 1,16 GiB (2%)
    Titul                                    : DTS EN 1,5 Mbs
    Jazyk                                    : English
    Default                                  : Ne
    Forced                                   : Ne

    Audio #4
    ID                                       : 5
    Formát                                   : DTS XLL
    Formát/Info                              : Digital Theater Systems
    Commercial name                          : DTS-HD Master Audio
    Codec ID                                 : A_DTS
    Duration                                 : 1 h 50 min
    Bit rate mode                            : Variable
    Bit rate                                 : 4 099 kb/s
    Kanál(y)                                 : 6 kanály
    Channel layout                           : C L R Ls Rs LFE
    Sampling rate                            : 48,0 kHz
    Frame rate                               : 93,750 FPS (512 SPF)
    Bit depth                                : 24 bits
    Compression mode                         : Lossless
    Stream size                              : 3,16 GiB (5%)
    Titul                                    : Original Theatrical 5.1 Surround Mix
    Jazyk                                    : English
    Default                                  : Ne
    Forced                                   : Ne

    Text #1
    ID                                       : 6
    Formát                                   : UTF-8
    Codec ID                                 : S_TEXT/UTF8
    Codec ID/Info                            : UTF-8 Plain Text
    Duration                                 : 1 h 44 min
    Bit rate                                 : 66 b/s
    Frame rate                               : 0,260 FPS
    Count of elements                        : 1636
    Stream size                              : 50,8 KiB (0%)
    Titul                                    : SDH (4k 2160p)
    Jazyk                                    : English
    Default                                  : Ne
    Forced                                   : Ne

    Text #2
    ID                                       : 7
    Formát                                   : UTF-8
    Codec ID                                 : S_TEXT/UTF8
    Codec ID/Info                            : UTF-8 Plain Text
    Duration                                 : 1 h 48 min
    Bit rate                                 : 76 b/s
    Frame rate                               : 0,262 FPS
    Count of elements                        : 1709
    Stream size                              : 60,7 KiB (0%)
    Titul                                    : SDH and lyrics
    Jazyk                                    : English
    Default                                  : Ne
    Forced                                   : Ne

    Text #3
    ID                                       : 8
    Formát                                   : UTF-8
    Codec ID                                 : S_TEXT/UTF8
    Codec ID/Info                            : UTF-8 Plain Text
    Duration                                 : 1 h 42 min
    Bit rate                                 : 63 b/s
    Frame rate                               : 0,240 FPS
    Count of elements                        : 1478
    Stream size                              : 48,2 KiB (0%)
    Titul                                    : Blu-Ray US
    Jazyk                                    : English
    Default                                  : Ne
    Forced                                   : Ne

    Text #4
    ID                                       : 9
    Formát                                   : PGS
    Muxing mode                              : zlib
    Codec ID                                 : S_HDMV/PGS
    Codec ID/Info                            : Picture based subtitle format used on BDs/HD-DVDs
    Duration                                 : 1 h 44 min
    Bit rate                                 : 45,1 kb/s
    Frame rate                               : 0,521 FPS
    Count of elements                        : 3272
    Stream size                              : 33,8 MiB (0%)
    Titul                                    : SDH
    Jazyk                                    : English
    Default                                  : Ne
    Forced                                   : Ne

    Text #5
    ID                                       : 10
    Formát                                   : PGS
    Muxing mode                              : zlib
    Codec ID                                 : S_HDMV/PGS
    Codec ID/Info                            : Picture based subtitle format used on BDs/HD-DVDs
    Duration                                 : 1 h 48 min
    Bit rate                                 : 32,3 kb/s
    Frame rate                               : 0,453 FPS
    Count of elements                        : 2936
    Stream size                              : 24,9 MiB (0%)
    Jazyk                                    : Czech
    Default                                  : Ne
    Forced                                   : Ne

    Text #6
    ID                                       : 11
    Formát                                   : UTF-8
    Codec ID                                 : S_TEXT/UTF8
    Codec ID/Info                            : UTF-8 Plain Text
    Duration                                 : 1 h 40 min
    Bit rate                                 : 18 b/s
    Frame rate                               : 0,046 FPS
    Count of elements                        : 278
    Stream size                              : 13,6 KiB (0%)
    Titul                                    : CZ sub forced
    Jazyk                                    : Czech
    Default                                  : Ano
    Forced                                   : Ne

    Menu
    00:00:00.000                             : enreparing for Battle (Main Titles)
    00:03:12.609                             : en:The Shelter
    00:10:08.566                             : en:8 Mile Road
    00:14:52.391                             : en:The Franchise
    00:19:52.024                             : en:Sweet Home Alabama
    00:23:31.702                             : en:Saturday Night in the D
    00:27:21.557                             : en:The Chin Tiki
    00:34:41.579                             : en:Alex
    00:39:00.463                             : en:Burn It Down
    00:46:50.057                             : en:I Got Your Back
    00:52:55.005                             : en:The Lunch Truck
    01:01:48.538                             : en:This Ain't My Home
    01:06:03.084                             : en:Eviction Situation
    01:11:44.800                             : enomestic Disturbance
    01:13:48.633                             : en:WJLB (313 Baby, Love)
    01:16:45.601                             : enapa Doc Payback
    01:24:31.400                             : en:The Cripple Convention
    01:27:57.105                             : en:Rabbit Finds His Voice
    01:38:19.811                             : en:Final Face-Off
    01:43:31.205                             : en:Where We Goin'
    01:45:31.534                             : en:Lose Yourself (End Titles)













    Threadt, maysa33, filename, pepa49, Diplo,

    + Pridaj vlastnu verziu tohto torrentu +


    Upozornenie:
    Ziadny zo zobrazených súborov sa nenachádza na tomto serveri. Server slúzi len k síreniu vlastnorucne vytvorených aplikácií, videí, hudby ai. Autori stránok nenesú ziadnu zodpovednost za zverejnené odkazy, komentáre a obsah súborov. Vsetky komentáre, odkazy, súbory ktoré by svojou povahou mohli byt v rozpore zo zákonmi sem vkladáte na vlastnú zodpovednost. Autori stránok si vyhradzujú právo cenzúry odkazov, komentárov príp. súborov, ktoré by svojou povahou mohli byt v rozpore zo zákonmi a dobrými mravmi. Dodrzujte pravidlá!





    0
    4K
    Ratio 0.17

    Clen

    25/11/2022 15.28.57
    Díky za snahu, ale není synchronní ani ani zvuk, ani titulky!

    1
    Harper66
    Ratio 3.42

    Member+

    16/11/2022 01.19.20
    Me ten zvuk taky nesedi. :/

    2
    Flasher
    Ratio 0.89

    Clen

    15/11/2022 20.21.42
    Hele kontroloval si ten film vubec? Nesedi cz dabing na pusu!!!

    0
    Diplo
    Ratio 0.82

    Clen

    13/11/2022 22.58.24
    Diky!

    0
    Diplo
    Ratio 0.82

    Clen

    12/11/2022 13.58.01
    To je ofiko cz distribuce s cz dabingem nebo co?


    --------------
    >> 12/11/2022 14.11.43
    UPLOADER: Nekupoval jsem , takže distribuce je zahraniční a dabing dopasovaný z BR 1080p , zde máš info o cz distribuci https://www.dvd-premiery.cz/8-mile-4k-ultra-hd-blu-ray/?gclid=EAIaIQobChMIoeDSvNuo-wIVyOF3Ch0upwouEAQYASABEgLs6PD_BwE


    Back

    Na serveru se nenalézají zádne soubory. Za odkazy jsou výhradně zodpovědní uzivatelé a návstěvníci tohoto trackeru. Administrátor není zodpovědný za pridaný obsah ani za skody zpusobené uzivateli. Nesmíte pouzívat tuto webovou stránku pro distribuovaní nebo download zádného materiálu pokud nemáte povolení od príslusného vlastníka práv. Uzivatelé jsou zodpovědní za dodrzování těchto pravidel a podmínek. Owner má právo kdykoliv změnit pravidla tohoto trackeru.

    [ Script trval: 0.030 sec. ] - [ GZIP: enabled ]
    Je zhruba 21:29
    memcache

    TOPlist