Tvoj účet nieje VIP.
Preto sú tvoje funkcie a možnosti značne obmedzené.
Pre aktiváciu VIP klikni sem.

Absolventka / Post Grad (2009)(CZ) = CSFD 51% | SkTorrent.eu

Cz-SkTorrent open Tracker, na volné zdielanie súborov. Pridajte sa k nasej komunite a získajte pristup k tisícom torrentov.

  • vysoká rýchlost
  • úplne zdarma
  • prevazne Slovenska a Ceska scena
  • ste tu s nami uz 5 rokov - Dakujeme
  • Vitaj Guest (Login) Ako stahovat
    torrenty?
    Torrenty:
    v1 textová
    v2 obrázková
    v3 online filmy
    Ako sa stat
    Uploaderom
    Online
    Filmy
    Forum
    Pravidlá
    BitTorrent
    klient
    Meno: Heslo:
    Zaregistrovat
    Po zaregistrovaní mozte volne stahovat
    Zabudol som heslo

    Torrent's details
    Absolventka / Post Grad (2009)(CZ) = CSFD 51% Názov:Absolventka / Post Grad (2009)(CZ) = CSFD 51% Hodnocení: Stiahnut
    Pozriet Online
    Kategória:Filmy CZ/SK dabing Velikost:699.3 MB BitTorrent klient
    Pridaný: Súbory:
    Skontrolován:2014-07-10 Peerov:0 (Seed: 0, Leech: 0)
    Zaner:Komedie,Romanticky Uploader:Uvidis, az ked budes
    VIP
    Kúp nám Pivo 1,10€

    Kúp nám Pivo
    Podporte nas na Facebooku !
    Pridaj do zalozky
    Pridaj do zalozky





    Absolventka

    Jazyk: CZ 2,0
    Titulky: nie
    CSFD: http://www.csfd.cz/film/236111-absolventka/
    Rok vydání: USA, 2009
    Délka: 85min.
    Obal:

    Žánr: Komedie / Romantický
    Screen:
     




    Ryden Malbyová (Alexis Bledelová) měla plán: mít dobré známky na střední, aby získala stipendium na univerzitě. Teď když konečně školy absolvovala, nastal čas najít si senzační loftový byt a získat vysněnou práci v nejlepším vydavatelsví ve městě. Jenže když jí úhlavní sokyně z vysoké vyfoukne práci před nosem, je Ryden nucena přestěhovat se zpátky domů. Tam se musí potýkat se svou excentrickou rodinou - tvrdohlavým otcem, přehnaně šetrnou matkou, politicky nekorektní babičkou a potrhlým mladším bratrem. Hromada dopisů s negativní odpovědí na žádost o práci utěšeně narůstá a Ryden začíná mít pocit, že se její život zastavil. Jediné, co jí drží nad vodou, je nejlepší kamarád Adam (Zach Gilford) a sexy soused David. Jenže to ke štěstí a úspěšné budoucnosti rozhodně nestačí, možná nastal čas vymyslet plán nový... Zdroj: HBO


    Format: AVI
    Format/Info: Audio Video Interleave
    File size: 699 MiB
    Duration: 1h 24mn
    Overall bit rate: 1 151 Kbps

    Video
    ID: 0
    Format: AVC
    Format/Info: Advanced Video Codec
    Format profile: High@L3.0
    Format settings, CABAC: Yes
    Format settings, ReFrames: 2 frames
    Codec ID: H264
    Duration: 1h 24mn
    Bit rate: 1 045 Kbps
    Width: 640 pixels
    Height: 360 pixels
    Display aspect ratio: 16:9
    Frame rate: 25.000 fps
    Color space: YUV
    Chroma subsampling: 4:2:0
    Bit depth: 8 bits
    Scan type: Progressive
    Bits/(Pixel*Frame): 0.181
    Stream size: 635 MiB (91%)
    Writing library: x264 core 66 r1101M b69548a
    Encoding settings: cabac=1

    Audio
    ID: 1
    Format: MPEG Audio
    Format version: Version 1
    Format profile: Layer 3
    Mode: Joint stereo
    Codec ID: 55
    Codec ID/Hint: MP3
    Duration: 1h 24mn
    Source duration: 1h 24mn
    Bit rate mode: Constant
    Bit rate: 96.0 Kbps
    Channel(s): 2 channels
    Sampling rate: 44.1 KHz
    Compression mode: Lossy
    Stream size: 58.3 MiB (8%)
    Alignment: Aligned on interleaves
    Interleave, duration: 40 ms (1.00 video frame)
    Writing library: LAME3.98 (beta)


                                           













    + Pridaj vlastnu verziu tohto torrentu +


    Upozornenie:
    Ziadny zo zobrazených súborov sa nenachádza na tomto serveri. Server slúzi len k síreniu vlastnorucne vytvorených aplikácií, videí, hudby ai. Autori stránok nenesú ziadnu zodpovednost za zverejnené odkazy, komentáre a obsah súborov. Vsetky komentáre, odkazy, súbory ktoré by svojou povahou mohli byt v rozpore zo zákonmi sem vkladáte na vlastnú zodpovednost. Autori stránok si vyhradzujú právo cenzúry odkazov, komentárov príp. súborov, ktoré by svojou povahou mohli byt v rozpore zo zákonmi a dobrými mravmi. Dodrzujte pravidlá!





    -1
    staver
    Ratio 0.04

    Clen

    18/04/2014 12.42.20
    super film


    Back

    Na serveru se nenalézají zádne soubory. Za odkazy jsou výhradně zodpovědní uzivatelé a návstěvníci tohoto trackeru. Administrátor není zodpovědný za pridaný obsah ani za skody zpusobené uzivateli. Rozsirovat stránku nebo její obsah bez souhlasu ownera je zakázano. Nesmíte pouzívat tuto webovou stránku pro distribuovaní nebo download zádného materiálu pokud nemáte povolení od príslusného vlastníka práv. Uzivatelé jsou zodpovědní za dodrzování těchto pravidel a podmínek. Owner má právo kdykoliv změnit pravidla tohoto trackeru.

    [ Script trval: 0.027 sec. ] - [ GZIP: enabled ]
    BtiTracker (1.4.8) by Btiteam
    Je zhruba 04:20

    TOPlist