Tvoj účet nieje VIP.
Preto sú tvoje funkcie a možnosti značne obmedzené.
Pre aktiváciu VIP klikni sem.

Addamsova rodina 2 / The Addams Family 2 (CZ/SK/EN)(2021)(Web-DL)(1080p-HEVC) = CSFD 47% | SkTorrent.eu

Cz-SkTorrent open Tracker, na volné zdielanie súborov. Pridajte sa k nasej komunite a získajte pristup k tisícom torrentov.

  • vysoká rýchlost
  • úplne zdarma
  • prevazne Slovenska a Ceska scena
  • ste tu s nami uz 5 rokov - Dakujeme
  • Vitaj Guest (Login) Ako stahovat
    torrenty?
    Torrenty:
    v1 textová
    v2 obrázková
    v3 online filmy
    Ako sa stat
    Uploaderom
    Online
    Filmy
    Forum
    Pravidlá
    BitTorrent
    klient
    Meno: Heslo:
    Zaregistrovat
    Po zaregistrovaní mozte volne stahovat
    Zabudol som heslo

    Torrent's details
    Addamsova rodina 2 / The Addams Family 2 (CZ/SK/EN)(2021)(Web-DL)(1080p-HEVC) = CSFD 47% Názov:Addamsova rodina 2 / The Addams Family 2 (CZ/SK/EN)(2021)(Web-DL)(1080p-HEVC) = CSFD 47% Hodnocení: Stiahnut
    Pozriet Online
    Kategória:HD Filmy Velikost:2.5 GB BitTorrent klient
    Pridaný: Súbory:
    Skontrolován:2022-06-23 Peerov:57 (Seed: 57, Leech: 0)
    Zaner:Animovany,Fantasy,Komedie,Rodinny Uploader:Uvidis, az ked budes
    VIP
    Kúp nám Pivo 1,10€

    Kúp nám Pivo
    Podporte nas na Facebooku !
    Pridaj do zalozky
    Pridaj do zalozky











    Animovaný / Komedie / Rodinný / Fantasy / Horor
    USA / Velká Británie / Kanada, 2021, 93 min (Alternativní 90 min)


    Video: 1080p MKV HEVC
    Audio : CZ/SK/EN Dabing - AC-3 5.1- 384 kb/s
    Titulky : CZ/EN

    Režie: Greg Tiernan, Conrad Vernon, Kevin Pavlovic
    Scénář: Dan Hernandez, Benji Samit
    Hudba: Jeff Danna, Mychael Danna
    Hrají: (Charlize Theron - ), Chloë Grace Moretz, Oscar Isaac, Javon 'Wanna' Walton, Bette Midler, Bill Hader, Nick Kroll, Snoop Dogg, Wallace Shawn
    Produkce: Gail Berman, Alison O'Brien, Danielle Sterling, Conrad Vernon
    Scénografie: Kathleen Shugrue

    Náhled








    Vyrazte na letní dovolenou s Addamsovou rodinou, kteří svým nevšedním a podivným chováním terorizují nové kraje. (Forum Film CZ)



    Formát                                   : Matroska
    Format version                           : Version 4
    Velikost souboru                         : 2,46 GiB
    Duration                                 : 1 h 29 min
    Celkový BitRate                          : 3 930 kb/s
    Název filmu                              : The Addams Family 2
    Description                              : Looking for a way to spook up your life? Pack your bags and join The Addams Family on their family road trip! An adventurous journey across America takes them into hilarious run-ins with their iconic cousin, IT, as well as many new kooky characters.
    Encoded date                             : UTC 2022-06-23 18:52:59
    Použitý software                         : HandBrake 1.5.1 2022011000
    Enkódoval                                : Lavf58.76.100
    ErrorDetectionType                       : Per level 1

    Video
    ID                                       : 1
    Formát                                   : HEVC
    Formát/Info                              : High Efficiency Video Coding
    Format profile                           : Main@L4@Main
    Codec ID                                 : V_MPEGH/ISO/HEVC
    Duration                                 : 1 h 29 min
    Bit rate                                 : 2 700 kb/s
    Šířka                                    : 1 920pixely
    Výška                                    : 1 080pixely
    Poměr stran                              : 16:9
    Frame rate mode                          : Constant
    Frame rate                               : 25,000 FPS
    Color space                              : YUV
    Chroma subsampling                       : 4:2:0
    Bit depth                                : 8 bits
    Bits/(Pixel*Frame)                       : 0.052
    Stream size                              : 1,69 GiB (69%)
    Default                                  : Ano
    Forced                                   : Ne
    Color range                              : Limited
    Color primaries                          : BT.709
    Transfer characteristics                 : BT.709
    Matrix coefficients                      : BT.709

    Audio #1
    ID                                       : 2
    Formát                                   : AC-3
    Formát/Info                              : Audio Coding 3
    Commercial name                          : Dolby Digital
    Codec ID                                 : A_AC3
    Duration                                 : 1 h 29 min
    Bit rate mode                            : Constant
    Bit rate                                 : 384 kb/s
    Kanál(y)                                 : 6 kanály
    Channel layout                           : L R C LFE Ls Rs
    Sampling rate                            : 48,0 kHz
    Frame rate                               : 31,250 FPS (1536 SPF)
    Compression mode                         : Lossy
    Stream size                              : 246 MiB (10%)
    Titul                                    : Česky
    Jazyk                                    : Czech
    Service kind                             : Complete Main
    Default                                  : Ano
    Forced                                   : Ne

    Audio #2
    ID                                       : 3
    Formát                                   : AC-3
    Formát/Info                              : Audio Coding 3
    Commercial name                          : Dolby Digital
    Codec ID                                 : A_AC3
    Duration                                 : 1 h 29 min
    Bit rate mode                            : Constant
    Bit rate                                 : 384 kb/s
    Kanál(y)                                 : 6 kanály
    Channel layout                           : L R C LFE Ls Rs
    Sampling rate                            : 48,0 kHz
    Frame rate                               : 31,250 FPS (1536 SPF)
    Compression mode                         : Lossy
    Stream size                              : 246 MiB (10%)
    Titul                                    : Slovensky
    Jazyk                                    : Slovak
    Service kind                             : Complete Main
    Default                                  : Ne
    Forced                                   : Ne

    Audio #3
    ID                                       : 4
    Formát                                   : AC-3
    Formát/Info                              : Audio Coding 3
    Commercial name                          : Dolby Digital
    Codec ID                                 : A_AC3
    Duration                                 : 1 h 29 min
    Bit rate mode                            : Constant
    Bit rate                                 : 384 kb/s
    Kanál(y)                                 : 6 kanály
    Channel layout                           : L R C LFE Ls Rs
    Sampling rate                            : 48,0 kHz
    Frame rate                               : 31,250 FPS (1536 SPF)
    Compression mode                         : Lossy
    Stream size                              : 246 MiB (10%)
    Titul                                    : English
    Jazyk                                    : English
    Service kind                             : Complete Main
    Default                                  : Ne
    Forced                                   : Ne

    Text #1
    ID                                       : 5
    Formát                                   : ASS
    Codec ID                                 : S_TEXT/ASS
    Codec ID/Info                            : Advanced Sub Station Alpha
    Duration                                 : 1 h 24 min
    Compression mode                         : Lossless
    Titul                                    : Czech
    Jazyk                                    : Czech
    Default                                  : Ne
    Forced                                   : Ne

    Text #2
    ID                                       : 6
    Formát                                   : ASS
    Codec ID                                 : S_TEXT/ASS
    Codec ID/Info                            : Advanced Sub Station Alpha
    Duration                                 : 1 h 22 min
    Compression mode                         : Lossless
    Titul                                    : English
    Jazyk                                    : English
    Default                                  : Ne
    Forced                                   : Ne








    ONLINE

    CZ dabing









    Lucyfyre666, bodrobodro, Tomuri8,

    + Pridaj vlastnu verziu tohto torrentu +


    Upozornenie:
    Ziadny zo zobrazených súborov sa nenachádza na tomto serveri. Server slúzi len k síreniu vlastnorucne vytvorených aplikácií, videí, hudby ai. Autori stránok nenesú ziadnu zodpovednost za zverejnené odkazy, komentáre a obsah súborov. Vsetky komentáre, odkazy, súbory ktoré by svojou povahou mohli byt v rozpore zo zákonmi sem vkladáte na vlastnú zodpovednost. Autori stránok si vyhradzujú právo cenzúry odkazov, komentárov príp. súborov, ktoré by svojou povahou mohli byt v rozpore zo zákonmi a dobrými mravmi. Dodrzujte pravidlá!





    0
    robert19791979
    Ratio 0.11

    Clen

    24/06/2022 07.05.45
    super ,dakujem pekne . Ron ma chybu alebo Rumble po slovensky nema niekto ? dakujem


    Back

    Na serveru se nenalézají zádne soubory. Za odkazy jsou výhradně zodpovědní uzivatelé a návstěvníci tohoto trackeru. Administrátor není zodpovědný za pridaný obsah ani za skody zpusobené uzivateli. Rozsirovat stránku nebo její obsah bez souhlasu ownera je zakázano. Nesmíte pouzívat tuto webovou stránku pro distribuovaní nebo download zádného materiálu pokud nemáte povolení od príslusného vlastníka práv. Uzivatelé jsou zodpovědní za dodrzování těchto pravidel a podmínek. Owner má právo kdykoliv změnit pravidla tohoto trackeru.

    [ Script trval: 0.026 sec. ] - [ GZIP: enabled ]
    Je zhruba 07:32
    sql

    TOPlist