Tvoj ˙čet nieje VIP.
Preto s˙ tvoje funkcie a možnosti značne obmedzenÚ.
Pre aktivßciu VIP klikni sem.

Advokat / The Lincoln Lawyer (S01)(2022)(1080p)(x264)(WebDL)(CZ+Multgi 5 lang)(MultiSUB) = CSFD 76% | SkTorrent.eu

Cz-SkTorrent open Tracker, na volnÚ zdielanie s˙borov. Pridajte sa k nasej komunite a zÝskajte pristup k tisÝcom torrentov.

  • vysokß rřchlost
  • ˙plne zdarma
  • prevazne Slovenska a Ceska scena
  • ste tu s nami uz 5 rokov - Dakujeme
  • Vitaj Guest (Login) Ako stahovat
    torrenty?
    Torrenty:
    v1 textovß
    v2 obrßzkovß
    v3 online filmy
    Ako sa stat
    Uploaderom
    Online
    Filmy
    Forum
    Pravidlß
    BitTorrent
    klient
    Meno: Heslo:
    Zaregistrovat
    Po zaregistrovanÝ mozte volne stahovat
    Zabudol som heslo

    Torrent's details
    Advokat / The Lincoln Lawyer (S01)(2022)(1080p)(x264)(WebDL)(CZ+Multgi 5 lang)(MultiSUB) = CSFD 76% Nßzov:Advokat / The Lincoln Lawyer (S01)(2022)(1080p)(x264)(WebDL)(CZ+Multgi 5 lang)(MultiSUB) = CSFD 76% HodnocenÝ:N/A Stiahnut
    Pozriet Online
    Kategˇria:Serißl Velikost:10.9 GB BitTorrent klient
    Pridanř: S˙bory:
    Skontrolovßn:2022-05-21 Peerov:9 (Seed: 8, Leech: 1)
    Zaner:Drama,Krimi,Mysteriozni,Thriller Uploader:Uvidis, az ked budes
    VIP
    K˙p nßm Pivo 1,10€

    K˙p nßm Pivo
    Podporte nas na Facebooku !
    Pridaj do zalozky
    Pridaj do zalozky





    [center]






    Movie Name: The Lincoln Lawyer (S01)(2022)(Complete)
    IMDb Rating: 7.7/10

    Quality: 1080p (WebDL)
    Language: E-AC-3 5.1 640kb/s - English , Czech , Germany
    E-AC-3 2.0 128 kb/s - Polish , Hungarian
    Subtitles: Multi
    Director: Liz Friedlander, Erin Feeley, Bill D'Elia, David Grossman, Alonso Alvarez Barreda
    Writers: David E. Kelley, Ted Humphrey
    Genres: Crime | Drama | Mystery


    An iconoclastic idealist runs his law practice out of the back of his Lincoln Town Car in this series based on Michael Connelly's bestselling novels.




    [/center]

    Format                                   : Matroska
    Format version                           : Version 4
    File size                                : 1.04 GiB
    Duration                                 : 48 min 51 s
    Overall bit rate mode                    : Variable
    Overall bit rate                         : 3 032 kb/s
    Movie name                               : Zpßtky vásedle
    Description                              : Po osobnÝm pr¨╣vihu, kterř ho srazÝ na kolena iáprofesný, dostane losangeleskř advokßt Mickey Haller neŔekanou ╣anci od kolegy zábranże.
    Writing application                      : Lavf58.76.100
    Writing library                          : Lavf58.76.100
    ErrorDetectionType                       : Per level 1
    EPISODE_ID                               : 1
    SEASON_NUMBER                            : 1
    SHOW                                     : Advokßt

    Video
    ID                                       : 1
    Format                                   : AVC
    Format/Info                              : Advanced Video Codec
    Format profile                           : High@L4
    Format settings                          : CABAC / 4 Ref Frames
    Format settings, CABAC                   : Yes
    Format settings, Reference frames        : 4 frames
    Codec ID                                 : V_MPEG4/ISO/AVC
    Duration                                 : 48 min 51 s
    Bit rate mode                            : Variable
    Bit rate                                 : 1 308 kb/s
    Maximum bit rate                         : 20.0 Mb/s
    Width                                    : 1 920 pixels
    Height                                   : 1 080 pixels
    Display aspect ratio                     : 16:9
    Frame rate mode                          : Constant
    Frame rate                               : 23.976 (24000/1001) FPS
    Color space                              : YUV
    Chroma subsampling                       : 4:2:0
    Bit depth                                : 8 bits
    Scan type                                : Progressive
    Bits/(Pixel*Frame)                       : 0.026
    Stream size                              : 457 MiB (43%)
    Title                                    : ?@GPAC2.1-DEV-rev6151-gb558f0b55-HEAD
    Writing library                          : x264 core 148 r2727 7d026e8
    Encoding settings                        : cabac=1 / ref=4 / deblock=1:0:0 / analyse=0x3:0x111 / me=umh / subme=10 / psy=1 / psy_rd=1.00:0.00 / mixed_ref=1 / me_range=120 / chroma_me=1 / trellis=2 / 8x8dct=1 / cqm=0 / deadzone=21,11 / fast_pskip=1 / chroma_qp_offset=-2 / threads=6 / lookahead_threads=1 / sliced_threads=0 / nr=0 / decimate=1 / interlaced=0 / bluray_compat=0 / stitchable=1 / constrained_intra=0 / bframes=16 / b_pyramid=2 / b_adapt=2 / b_bias=0 / direct=3 / weightb=1 / open_gop=0 / weightp=2 / keyint=240 / keyint_min=121 / scenecut=0 / intra_refresh=0 / rc_lookahead=240 / rc=crf / mbtree=1 / crf=25.0 / qcomp=0.50 / qpmin=6 / qpmax=51 / qpstep=4 / vbv_maxrate=20000 / vbv_bufsize=25000 / crf_max=0.0 / nal_hrd=vbr / filler=0 / ip_ratio=1.40 / aq=1:0.80
    Default                                  : Yes
    Forced                                   : No
    VENDOR_ID                                : [0][0][0][0]

    Audio #1
    ID                                       : 2
    Format                                   : E-AC-3
    Format/Info                              : Enhanced AC-3
    Commercial name                          : Dolby Digital Plus
    Codec ID                                 : A_EAC3
    Duration                                 : 48 min 51 s
    Bit rate mode                            : Constant
    Bit rate                                 : 640 kb/s
    Channel(s)                               : 6 channels
    Channel layout                           : L R C LFE Ls Rs
    Sampling rate                            : 48.0 kHz
    Frame rate                               : 31.250 FPS (1536 SPF)
    Bit depth                                : 32 bits
    Compression mode                         : Lossy
    Stream size                              : 224 MiB (21%)
    Title                                    : Ŕe╣tina
    Language                                 : Czech
    Service kind                             : Complete Main
    Default                                  : Yes
    Forced                                   : No
    VENDOR_ID                                : [0][0][0][0]

    Audio #2
    ID                                       : 3
    Format                                   : E-AC-3
    Format/Info                              : Enhanced AC-3
    Commercial name                          : Dolby Digital Plus
    Codec ID                                 : A_EAC3
    Duration                                 : 48 min 51 s
    Bit rate mode                            : Constant
    Bit rate                                 : 128 kb/s
    Channel(s)                               : 2 channels
    Channel layout                           : L R
    Sampling rate                            : 48.0 kHz
    Frame rate                               : 31.250 FPS (1536 SPF)
    Bit depth                                : 32 bits
    Compression mode                         : Lossy
    Stream size                              : 44.7 MiB (4%)
    Title                                    : nýmŔina
    Language                                 : German
    Service kind                             : Complete Main
    Default                                  : No
    Forced                                   : No
    VENDOR_ID                                : [0][0][0][0]

    Audio #3
    ID                                       : 4
    Format                                   : E-AC-3
    Format/Info                              : Enhanced AC-3
    Commercial name                          : Dolby Digital Plus
    Codec ID                                 : A_EAC3
    Duration                                 : 48 min 51 s
    Bit rate mode                            : Constant
    Bit rate                                 : 640 kb/s
    Channel(s)                               : 6 channels
    Channel layout                           : L R C LFE Ls Rs
    Sampling rate                            : 48.0 kHz
    Frame rate                               : 31.250 FPS (1536 SPF)
    Bit depth                                : 32 bits
    Compression mode                         : Lossy
    Stream size                              : 224 MiB (21%)
    Title                                    : angliŔtina [Originßl]
    Language                                 : English
    Service kind                             : Complete Main
    Default                                  : No
    Forced                                   : No
    VENDOR_ID                                : [0][0][0][0]

    Audio #4
    ID                                       : 5
    Format                                   : E-AC-3
    Format/Info                              : Enhanced AC-3
    Commercial name                          : Dolby Digital Plus
    Codec ID                                 : A_EAC3
    Duration                                 : 48 min 51 s
    Bit rate mode                            : Constant
    Bit rate                                 : 128 kb/s
    Channel(s)                               : 2 channels
    Channel layout                           : L R
    Sampling rate                            : 48.0 kHz
    Frame rate                               : 31.250 FPS (1536 SPF)
    Bit depth                                : 32 bits
    Compression mode                         : Lossy
    Stream size                              : 44.7 MiB (4%)
    Title                                    : ma´ar╣tina
    Language                                 : Hungarian
    Service kind                             : Complete Main
    Default                                  : No
    Forced                                   : No
    VENDOR_ID                                : [0][0][0][0]

    Audio #5
    ID                                       : 6
    Format                                   : E-AC-3
    Format/Info                              : Enhanced AC-3
    Commercial name                          : Dolby Digital Plus
    Codec ID                                 : A_EAC3
    Duration                                 : 48 min 51 s
    Bit rate mode                            : Constant
    Bit rate                                 : 128 kb/s
    Channel(s)                               : 2 channels
    Channel layout                           : L R
    Sampling rate                            : 48.0 kHz
    Frame rate                               : 31.250 FPS (1536 SPF)
    Bit depth                                : 32 bits
    Compression mode                         : Lossy
    Stream size                              : 44.7 MiB (4%)
    Title                                    : pol╣tina
    Language                                 : Polish
    Service kind                             : Complete Main
    Default                                  : No
    Forced                                   : No
    VENDOR_ID                                : [0][0][0][0]

    Text #1
    ID                                       : 7
    Format                                   : UTF-8
    Codec ID                                 : S_TEXT/UTF8
    Codec ID/Info                            : UTF-8 Plain Text
    Duration                                 : 47 min 7 s
    Title                                    : Ŕe╣tina
    Writing library                          : Lavc58.134.100 srt
    Language                                 : Czech
    Default                                  : Yes
    Forced                                   : No

    Text #2
    ID                                       : 8
    Format                                   : UTF-8
    Codec ID                                 : S_TEXT/UTF8
    Codec ID/Info                            : UTF-8 Plain Text
    Duration                                 : 47 min 7 s
    Title                                    : Czech [ForcedNarrative]
    Writing library                          : Lavc58.134.100 srt
    Language                                 : Czech
    Default                                  : No
    Forced                                   : No

    Text #3
    ID                                       : 9
    Format                                   : UTF-8
    Codec ID                                 : S_TEXT/UTF8
    Codec ID/Info                            : UTF-8 Plain Text
    Duration                                 : 47 min 7 s
    Title                                    : nýmŔina
    Writing library                          : Lavc58.134.100 srt
    Language                                 : German
    Default                                  : No
    Forced                                   : No

    Text #4
    ID                                       : 10
    Format                                   : UTF-8
    Codec ID                                 : S_TEXT/UTF8
    Codec ID/Info                            : UTF-8 Plain Text
    Duration                                 : 47 min 7 s
    Title                                    : German [ForcedNarrative]
    Writing library                          : Lavc58.134.100 srt
    Language                                 : German
    Default                                  : No
    Forced                                   : No

    Text #5
    ID                                       : 11
    Format                                   : UTF-8
    Codec ID                                 : S_TEXT/UTF8
    Codec ID/Info                            : UTF-8 Plain Text
    Duration                                 : 45 min 28 s
    Title                                    : angliŔtina [CC]
    Writing library                          : Lavc58.134.100 srt
    Language                                 : English
    Default                                  : No
    Forced                                   : No

    Text #6
    ID                                       : 12
    Format                                   : UTF-8
    Codec ID                                 : S_TEXT/UTF8
    Codec ID/Info                            : UTF-8 Plain Text
    Duration                                 : 47 min 7 s
    Title                                    : ma´ar╣tina
    Writing library                          : Lavc58.134.100 srt
    Language                                 : Hungarian
    Default                                  : No
    Forced                                   : No

    Text #7
    ID                                       : 13
    Format                                   : UTF-8
    Codec ID                                 : S_TEXT/UTF8
    Codec ID/Info                            : UTF-8 Plain Text
    Duration                                 : 47 min 7 s
    Title                                    : Hungarian [ForcedNarrative]
    Writing library                          : Lavc58.134.100 srt
    Language                                 : Hungarian
    Default                                  : No
    Forced                                   : No

    Text #8
    ID                                       : 14
    Format                                   : UTF-8
    Codec ID                                 : S_TEXT/UTF8
    Codec ID/Info                            : UTF-8 Plain Text
    Duration                                 : 47 min 7 s
    Title                                    : Polish [ForcedNarrative]
    Writing library                          : Lavc58.134.100 srt
    Language                                 : Polish
    Default                                  : No
    Forced                                   : No

    Text #9
    ID                                       : 15
    Format                                   : UTF-8
    Codec ID                                 : S_TEXT/UTF8
    Codec ID/Info                            : UTF-8 Plain Text
    Duration                                 : 47 min 7 s
    Title                                    : pol╣tina
    Writing library                          : Lavc58.134.100 srt
    Language                                 : Polish
    Default                                  : No
    Forced                                   : No

    Text #10
    ID                                       : 16
    Format                                   : UTF-8
    Codec ID                                 : S_TEXT/UTF8
    Codec ID/Info                            : UTF-8 Plain Text
    Duration                                 : 47 min 7 s
    Title                                    : ukrajin╣tina
    Writing library                          : Lavc58.134.100 srt
    Language                                 : Ukrainian
    Default                                  : No
    Forced                                   : No











    margharethe,

    + Pridaj vlastnu verziu tohto torrentu +


    Upozornenie:
    Ziadny zo zobrazenřch s˙borov sa nenachßdza na tomto serveri. Server sl˙zi len k sÝreniu vlastnorucne vytvorenřch aplikßciÝ, videÝ, hudby ai. Autori strßnok nenes˙ ziadnu zodpovednost za zverejnenÚ odkazy, komentßre a obsah s˙borov. Vsetky komentßre, odkazy, s˙bory ktorÚ by svojou povahou mohli byt v rozpore zo zßkonmi sem vkladßte na vlastn˙ zodpovednost. Autori strßnok si vyhradzuj˙ prßvo cenz˙ry odkazov, komentßrov prÝp. s˙borov, ktorÚ by svojou povahou mohli byt v rozpore zo zßkonmi a dobrřmi mravmi. Dodrzujte pravidlß!


    No comments...


    Back

    Na serveru se nenalÚzajÝ zßdne soubory. Za odkazy jsou vřhradný zodpovýdnÝ uzivatelÚ a nßvstývnÝci tohoto trackeru. Administrßtor nenÝ zodpovýdnř za pridanř obsah ani za skody zpusobenÚ uzivateli. Rozsirovat strßnku nebo jejÝ obsah bez souhlasu ownera je zakßzano. NesmÝte pouzÝvat tuto webovou strßnku pro distribuovanÝ nebo download zßdnÚho materißlu pokud nemßte povolenÝ od prÝslusnÚho vlastnÝka prßv. UzivatelÚ jsou zodpovýdnÝ za dodrzovßnÝ týchto pravidel a podmÝnek. Owner mß prßvo kdykoliv zmýnit pravidla tohoto trackeru.

    [ Script trval: 0.034 sec. ] - [ GZIP: enabled ]
    Je zhruba 01:12
    sql

    TOPlist