Tvoj účet nieje VIP.
Preto sú tvoje funkcie a možnosti značne obmedzené.
Pre aktiváciu VIP klikni sem.

Agent na uteku / The Expatriate (2012)(CZ) = CSFD 54% | SkTorrent.eu

Cz-SkTorrent open Tracker, na volné zdielanie súborov. Pridajte sa k nasej komunite a získajte pristup k tisícom torrentov.

  • vysoká rýchlost
  • úplne zdarma
  • prevazne Slovenska a Ceska scena
  • ste tu s nami uz 5 rokov - Dakujeme
  • Vitaj Guest (Login) Ako stahovat
    torrenty?
    Torrenty:
    v1 textová
    v2 obrázková
    v3 online filmy
    Ako sa stat
    Uploaderom
    Online
    Filmy
    Forum
    Pravidlá
    BitTorrent
    klient
    Meno: Heslo:
    Zaregistrovat
    Po zaregistrovaní mozte volne stahovat
    Zabudol som heslo

    Torrent's details
    Agent na uteku / The Expatriate (2012)(CZ) = CSFD 54% Názov:Agent na uteku / The Expatriate (2012)(CZ) = CSFD 54% Hodnocení: Stiahnut
    Pozriet Online
    Kategória:Filmy CZ/SK dabing Velikost:1.5 GB BitTorrent klient
    Pridaný: Súbory:
    Skontrolován:2020-10-18 Peerov:117 (Seed: 114, Leech: 3)
    Zaner:Akcni,Thriller Uploader:Uvidis, az ked budes
    VIP
    Kúp nám Pivo 1,10€

    Kúp nám Pivo
    Podporte nas na Facebooku !
    Pridaj do zalozky
    Pridaj do zalozky






    Jazyk: Cz
    Titulky: Ne
    Odkaz na CSFD: http://www.csfd.cz/film/298280-agent-na-uteku
    http://www.csfd.cz/film/298280-agent-na-uteku/
    Rok vydání: USA / Kanada / Belgie, 2012
    Délka: 100 min.
    Žánr: Akční / Thriller











    Hlavní
    Celý název a cesta                       : C:\INTERNET\Agent na útěku  2012.avi
    Formát                                   : AVI
    Formát/Info                              : Audio Video Interleave
    Velikost souboru                         : 1,45 GiB
    Duration                                 : 1 h 40 min
    Celkový BitRate                          : 2 072 kb/s
    Název filmu                              : Ýęńďŕň / The Expatriate (2012) BDRip
    Director                                 : yaroslaigor
    žánr                                     : áîĺâčę, ňđčëëĺđ
    Použitý software                         : VirtualDubMod 1.5.10.2 (build 2540/release)
    Enkódoval                                : VirtualDubMod build 2540/release
    Copyright                                : http://hqclub.net/
    Komentář                                 : 09.07.2013

    Video
    ID                                       : 0
    Formát                                   : MPEG-4 Visual
    Format profile                           : Advanced Simple@L5
    Format settings                          : BVOP1 / Custom Matrix
    Format settings, BVOP                    : 1
    Format settings, QPel                    : Ne
    Format settings, GMC                     : No warppoints
    Format settings, Matrix                  : Custom
    Codec ID                                 : XVID
    Codec ID/Hint                            : XviD
    Duration                                 : 1 h 40 min
    Bit rate                                 : 1 678 kb/s
    Šířka                                    : 720pixely
    Výška                                    : 304pixely
    Poměr stran                              : 2,35:1
    Frame rate                               : 25,000 FPS
    Color space                              : YUV
    Chroma subsampling                       : 4:2:0
    Bit depth                                : 8 bits
    Scan type                                : Progressive
    Compression mode                         : Lossy
    Bits/(Pixel*Frame)                       : 0.307
    Stream size                              : 1,18 GiB (81%)
    Enkódoval                                : XviD 65

    Audio
    ID                                       : 1
    Formát                                   : AC-3
    Formát/Info                              : Audio Coding 3
    Commercial name                          : Dolby Digital
    Codec ID                                 : 2000
    Duration                                 : 1 h 40 min
    Bit rate mode                            : Constant
    Bit rate                                 : 384 kb/s
    Kanál(y)                                 : 2 kanály
    Channel layout                           : L R
    Sampling rate                            : 48,0 kHz
    Frame rate                               : 31,250 FPS (1536 SPF)
    Compression mode                         : Lossy
    Stream size                              : 276 MiB (19%)
    Alignment                                : Split across interleaves
    Interleave, duration                     : 40  ms (1,00 video frame)
    Interleave, preload duration             : 500  ms
    Service kind                             : Complete Main


    Bývalý agent CIA je společně se svou pubertální dcerou donucen k útěku poté, co jeho zaměstnavatel odsoudí oba dva k likvidaci v rámci mezinárodního spiknutí.
    Bývalý agent CIA Ben Logan doufá, že se mu podaří znovu nastartovat vztah s jeho patnáctiletou dcerou Amy, se kterou si jsou poměrně odcizení. Získá práci v Belgii jako bezpečnostní expert pro velkou nadnárodní korporaci.
    Jednoho dne přijde Logan do práce a zjistí, že divize, ve které pracoval, již neexistuje - kolegové smazali veškeré materiály a jeho asistent je ve skutečnosti trénovaný agent s jasným úkolem – zabít Logana i jeho dceru. Není čas přemýšlet, co se stalo a proč je někdo chce zabít – Logan a Amy musí prchnout a v patách mají dokonale vyškolené zabijácké komando.












    tnt32, KULADA, kirk33, martin1977, bretapivo1, _GrOOt_, SISKAMI, tetrov_cierny,

    + Pridaj vlastnu verziu tohto torrentu +


    Upozornenie:
    Ziadny zo zobrazených súborov sa nenachádza na tomto serveri. Server slúzi len k síreniu vlastnorucne vytvorených aplikácií, videí, hudby ai. Autori stránok nenesú ziadnu zodpovednost za zverejnené odkazy, komentáre a obsah súborov. Vsetky komentáre, odkazy, súbory ktoré by svojou povahou mohli byt v rozpore zo zákonmi sem vkladáte na vlastnú zodpovednost. Autori stránok si vyhradzujú právo cenzúry odkazov, komentárov príp. súborov, ktoré by svojou povahou mohli byt v rozpore zo zákonmi a dobrými mravmi. Dodrzujte pravidlá!


    No comments...


    Back

    Na serveru se nenalézají zádne soubory. Za odkazy jsou výhradně zodpovědní uzivatelé a návstěvníci tohoto trackeru. Administrátor není zodpovědný za pridaný obsah ani za skody zpusobené uzivateli. Rozsirovat stránku nebo její obsah bez souhlasu ownera je zakázano. Nesmíte pouzívat tuto webovou stránku pro distribuovaní nebo download zádného materiálu pokud nemáte povolení od príslusného vlastníka práv. Uzivatelé jsou zodpovědní za dodrzování těchto pravidel a podmínek. Owner má právo kdykoliv změnit pravidla tohoto trackeru.

    [ Script trval: 0.022 sec. ] - [ GZIP: enabled ]
    BtiTracker (1.4.8) by Btiteam
    Je zhruba 00:33

    TOPlist