Tvoj účet nieje VIP.
Preto sú tvoje funkcie a možnosti značne obmedzené.
Pre aktiváciu VIP klikni sem.

Aladin (Disney) 1, 2, 3 + bonus = CSFD 83% | SkTorrent.eu

Cz-SkTorrent open Tracker, na volné zdielanie súborov. Pridajte sa k nasej komunite a získajte pristup k tisícom torrentov.

  • vysoká rýchlost
  • úplne zdarma
  • prevazne Slovenska a Ceska scena
  • ste tu s nami uz 5 rokov - Dakujeme
  • Vitaj Guest (Login) Ako stahovat
    torrenty?
    Torrenty:
    v1 textová
    v2 obrázková
    v3 online filmy
    Ako sa stat
    Uploaderom
    Online
    Filmy
    Forum
    Pravidlá
    BitTorrent
    klient
    Meno: Heslo:
    Zaregistrovat
    Po zaregistrovaní mozte volne stahovat
    Zabudol som heslo

    Torrent's details
    Aladin (Disney) 1, 2, 3 + bonus  = CSFD 83% Názov:Aladin (Disney) 1, 2, 3 + bonus = CSFD 83% Hodnocení:N/A Stiahnut
    Pozriet Online
    Kategória:Filmy Kreslené Velikost:18.0 GB BitTorrent klient
    Pridaný: Súbory:
    Skontrolován:2021-11-02 Peerov:5 (Seed: 5, Leech: 0)
    Zaner:Animovany,Fantasy,Muzikal,Rodinny Uploader:Uvidis, az ked budes
    VIP
    Kúp nám Pivo 1,10€

    Kúp nám Pivo
    Podporte nas na Facebooku !
    Pridaj do zalozky
    Pridaj do zalozky




















         Complete name : 01. Aladin (1992)
         cz.mkv

         Format : Matroska
         Format version : Version 4 /
         Version 2
         File size : 6.16 GiB
         Duration : 1 h 30 min
         Overall bit rate mode : Variable
         Overall bit rate : 9 733 kb/s
         Writing application : Lavf58.29.100
         Writing library : Lavf58.29.100
         ErrorDetectionType : Per level 1
         Video #1
         ID : 1
         Format : AVC
         Format/Info : Advanced Video Codec
         Format profile : Main@L4
         Format settings : CABAC /
         1 Ref Frames
         Format settings, CABAC : Yes
         Format settings, ReFrames : 1 frame
         Format settings, GOP : M=1, N=24
         Codec ID : V_MPEG4/ISO/AVC
         Duration : 1 h 30 min
         Bit rate mode : Variable
         Bit rate : 8 899 kb/s
         Maximum bit rate : 11.2 Mb/s
         Width : 1 920 pixels
         Height : 1 080 pixels
         Display aspect ratio : 16:9
         Frame rate mode : Constant
         Frame rate : 23.976 (24000/1001) FPS
         Color space : YUV
         Chroma subsampling : 4:2:0
         Bit depth : 8 bits
         Scan type : Progressive
         Bits/(Pixel*Frame) : 0.179
         Stream size : 5.64 GiB (91%)
         Default : Yes
         Forced : No
         Color range : Limited
         Color primaries : BT.709
         Transfer characteristics : BT.709
         Matrix coefficients : BT.709
         Audio #2
         ID : 2
         Format : AC-3
         Format/Info : Audio Coding 3
         Codec ID : A_AC3
         Duration : 1 h 30 min
         Bit rate mode : Constant
         Bit rate : 640 kb/s
         Channel(s) : 6 channels
         Channel positions : Front: L C R,
         Side: L R, LFE
         Sampling rate : 48.0 kHz
         Frame rate : 31.250 FPS (1536 SPF)
         Bit depth : 16 bits
         Compression mode : Lossy
         Stream size : 415 MiB (7%)
         Service kind : Complete Main
         Default : Yes
         Forced : No


         Complete name : 03. Aladin a
         kral zlodeju (1996) cz_sk.mkv

         Format : Matroska
         Format version : Version 4 /
         Version 2
         File size : 5.93 GiB
         Duration : 1 h 21 min
         Overall bit rate mode : Constant
         Overall bit rate : 10.4 Mb/s
         Writing application : Lavf58.29.100
         Writing library : Lavf58.29.100
         ErrorDetectionType : Per level 1
         Video #1
         ID : 1
         Format : AVC
         Format/Info : Advanced Video Codec
         Format profile : High@L4
         Format settings : CABAC /
         1 Ref Frames
         Format settings, CABAC : Yes
         Format settings, ReFrames : 1 frame
         Codec ID : V_MPEG4/ISO/AVC
         Duration : 1 h 21 min
         Bit rate mode : Constant
         Bit rate : 10 000 kb/s
         Width : 1 920 pixels
         Height : 1 080 pixels
         Display aspect ratio : 16:9
         Frame rate mode : Constant
         Frame rate : 23.976 (24000/1001) FPS
         Color space : YUV
         Chroma subsampling : 4:2:0
         Bit depth : 8 bits
         Scan type : Progressive
         Bits/(Pixel*Frame) : 0.201
         Stream size : 5.59 GiB (94%)
         Default : Yes
         Forced : No
         Audio #2
         ID : 2
         Format : AC-3
         Format/Info : Audio Coding 3
         Codec ID : A_AC3
         Duration : 1 h 21 min
         Bit rate mode : Constant
         Bit rate : 192 kb/s
         Channel(s) : 2 channels
         Channel positions : Front: L R
         Sampling rate : 44.1 kHz
         Frame rate : 28.711 FPS (1536 SPF)
         Bit depth : 16 bits
         Compression mode : Lossy
         Stream size : 112 MiB (2%)
         Language : Czech
         Service kind : Complete Main
         Default : Yes
         Forced : No
         Audio #3
         ID : 3
         Format : AC-3
         Format/Info : Audio Coding 3
         Codec ID : A_AC3
         Duration : 1 h 21 min
         Bit rate mode : Constant
         Bit rate : 192 kb/s
         Channel(s) : 2 channels
         Channel positions : Front: L R
         Sampling rate : 48.0 kHz
         Frame rate : 31.250 FPS (1536 SPF)
         Bit depth : 16 bits
         Compression mode : Lossy
         Stream size : 112 MiB (2%)
         Language : Slovak
         Service kind : Complete Main
         Default : Yes
         Forced : No
     

         Complete name : 02. Aladin -
         Jafaruv návrat cz_sk.mkv

         Format : Matroska
         Format version : Version 4 /
         Version 2
         File size : 3.62 GiB
         Duration : 2 h 18 min
         Overall bit rate mode : Constant
         Overall bit rate : 3 745 kb/s
         Writing application : Lavf58.29.100
         Writing library : Lavf58.29.100
         ErrorDetectionType : Per level 1
         Video #1
         ID : 1
         Format : AVC
         Format/Info : Advanced Video Codec
         Format profile : High@L4.2
         Format settings : CABAC /
         1 Ref Frames
         Format settings, CABAC : Yes
         Format settings, ReFrames : 1 frame
         Codec ID : V_MPEG4/ISO/AVC
         Duration : 2 h 18 min
         Bit rate mode : Constant
         Bit rate : 3 287 kb/s
         Nominal bit rate : 7 000 kb/s
         Width : 1 920 pixels
         Height : 1 080 pixels
         Display aspect ratio : 16:9
         Frame rate mode : Variable
         Original frame rate : 50.000 FPS
         Color space : YUV
         Chroma subsampling : 4:2:0
         Bit depth : 8 bits
         Scan type : Progressive
         Bits/(Pixel*Frame) : 0.068
         Stream size : 3.18 GiB (88%)
         Default : Yes
         Forced : No
         Audio #2
         ID : 2
         Format : AC-3
         Format/Info : Audio Coding 3
         Codec ID : A_AC3
         Duration : 2 h 18 min
         Bit rate mode : Constant
         Bit rate : 192 kb/s
         Channel(s) : 2 channels
         Channel positions : Front: L R
         Sampling rate : 48.0 kHz
         Frame rate : 31.250 FPS (1536 SPF)
         Bit depth : 16 bits
         Compression mode : Lossy
         Stream size : 190 MiB (5%)
         Language : Czech
         Service kind : Complete Main
         Default : Yes
         Forced : No
         Audio #3
         ID : 3
         Format : AC-3
         Format/Info : Audio Coding 3
         Codec ID : A_AC3
         Duration : 2 h 18 min
         Bit rate mode : Constant
         Bit rate : 192 kb/s
         Channel(s) : 2 channels
         Channel positions : Front: L R
         Sampling rate : 48.0 kHz
         Frame rate : 31.250 FPS (1536 SPF)
         Bit depth : 16 bits
         Compression mode : Lossy
         Stream size : 190 MiB (5%)
         Language : Slovak
         Service kind : Complete Main
         Default : Yes
         Forced : No
     
     
         Complete name : 04. Jasmininy
         kouzelne pribehy-Cesta.princezny
         (2005) cz.mkv

         Format : Matroska
         Format version : Version 4 /
         Version 2
         File size : 2.27 GiB
         Duration : 1 h 3 min
         Overall bit rate mode : Variable
         Overall bit rate : 5 119 kb/s
         Writing application : Lavf58.29.100
         Writing library : Lavf58.29.100
         ErrorDetectionType : Per level 1
         Video #1
         ID : 1
         Format : AVC
         Format/Info : Advanced Video Codec
         Format profile : High@L5
         Format settings : CABAC /
         1 Ref Frames
         Format settings, CABAC : Yes
         Format settings, ReFrames : 1 frame
         Codec ID : V_MPEG4/ISO/AVC
         Duration : 1 h 3 min
         Bit rate mode : Constant
         Bit rate : 5 000 kb/s
         Width : 2 560 pixels
         Height : 1 920 pixels
         Display aspect ratio : 4:3
         Frame rate mode : Constant
         Frame rate : 25.000 FPS
         Color space : YUV
         Chroma subsampling : 4:2:0
         Bit depth : 8 bits
         Scan type : Progressive
         Bits/(Pixel*Frame) : 0.041
         Stream size : 2.18 GiB (96%)
         Default : Yes
         Forced : No
         Audio #2
         ID : 2
         Format : MPEG Audio
         Format version : Version 1
         Format profile : Layer 3
         Format settings :
         Joint stereo / MS Stereo
         Codec ID : A_MPEG/L3
         Codec ID/Hint : MP3
         Duration : 1 h 3 min
         Bit rate mode : Variable
         Bit rate : 115 kb/s
         Nominal bit rate : 128 kb/s
         Channel(s) : 2 channels
         Sampling rate : 48.0 kHz
         Frame rate : 41.667 FPS (1152 SPF)
         Compression mode : Lossy
         Stream size : 52.4 MiB (2%)
         Writing library : LAME3.97
         Encoding settings : -m j -V 4 -q 2
         -lowpass 17 --abr 128
         Language : Czech
         Default : Yes
         Forced : No








    Torrent obsahuje:
    Aladin (1992) 87 min [83%] CZ
    Aladin - Jafarův návrat (1994) 66 min [56%] CZ/SK
    Aladin a král zlodějů (1996) 80 min [62%] CZ/SK
    Jasmíniny kouzelné příběhy: cesta princezny (2005) 63 min [62%] CZ

    POPIS:
    Klasická arabská pohádka o Aladinovi a jeho kouzelné lampě posloužila jako námět mnoha filmů, ale málokterý tak utkví v paměti jako zpracování studia Walta Disneyho z roku 1992. Na začátku devadesátých let studio nabíralo v animované tvorbě druhý dech a vedle klasické animace začínalo používat ve větší míře animaci počítačovou.

    Příběh chudého mladíka Aladina, který se zamiluje do sultánovy dcery, sleduje děj známé pohádky více méně tak, jak ji známe z jejích knižních podob. Ovšem s jednou důležitou změnou. Role džina, který plní nejrůznější přání majitele kouzelné lampy, nabyla na rozsahu, a především byla uzpůsobena naturelu jeho původního hlasového představitele, předčasně zesnulého komika Robina Williamse (1951–2014). Džin se tak stal v podstatě hlavní figurou celého vyprávění a jeho rychlopalné promluvy (adekvátně tlumočené v české verzi Otakarem Brouskem ml.) jsou katalyzátorem veškerého dění.

    Režisérská dvojice John Musker a Ron Clements předtím natočila Malou mořskou vílu (1989) a potom mj. Herkula (1997). Pod hudebním doprovodem jsou podepsáni skladatel Alan Menken a textaři Tim Rice a rovněž předčasně zesnulý Howard Ashman. Původní hudba a píseň A Whole New World dostaly Oscary. Mimořádný ohlas filmu vyprovokoval několik pokračování, stejnojmenný animovaný seriál (1994) (není obsažen v torr.) a snímky určené pro vydání na videu Jafarův návrat (1994) a Aladin a král zlodějů (1996).
    * Do torrentu jsem jako bonus přidal - Jasmíniny kouzelné příběhy: cesta princezny (2005) *
    * Aladin 1 je v celkem slušné kvalitě obrazu, zbytek jsem trochu poupravoval, aby to bylo koukatelné.  *








       

    PRO SPRÁVNÉ ZOBRAZENÍ NA MOBILNÍCH ZAŘÍZENÍCH JE POTŘEBA V PROHLÍŽEČI ZMĚNIT ZOBRAZENÍ NA VERZI PRO PC

    free counter








    Sethlans, Trismegistos, Alessa, Jirfasy, freelochy, bobo-10, luciusparkos, PEPIN1236,

    + Pridaj vlastnu verziu tohto torrentu +


    Upozornenie:
    Ziadny zo zobrazených súborov sa nenachádza na tomto serveri. Server slúzi len k síreniu vlastnorucne vytvorených aplikácií, videí, hudby ai. Autori stránok nenesú ziadnu zodpovednost za zverejnené odkazy, komentáre a obsah súborov. Vsetky komentáre, odkazy, súbory ktoré by svojou povahou mohli byt v rozpore zo zákonmi sem vkladáte na vlastnú zodpovednost. Autori stránok si vyhradzujú právo cenzúry odkazov, komentárov príp. súborov, ktoré by svojou povahou mohli byt v rozpore zo zákonmi a dobrými mravmi. Dodrzujte pravidlá!


    No comments...


    Back

    Na serveru se nenalézají zádne soubory. Za odkazy jsou výhradně zodpovědní uzivatelé a návstěvníci tohoto trackeru. Administrátor není zodpovědný za pridaný obsah ani za skody zpusobené uzivateli. Rozsirovat stránku nebo její obsah bez souhlasu ownera je zakázano. Nesmíte pouzívat tuto webovou stránku pro distribuovaní nebo download zádného materiálu pokud nemáte povolení od príslusného vlastníka práv. Uzivatelé jsou zodpovědní za dodrzování těchto pravidel a podmínek. Owner má právo kdykoliv změnit pravidla tohoto trackeru.

    [ Script trval: 0.035 sec. ] - [ GZIP: enabled ]
    Je zhruba 11:53
    sql

    TOPlist