Tvoj účet nieje VIP.
Preto sú tvoje funkcie a možnosti značne obmedzené.
Pre aktiváciu VIP klikni sem.

Arthur a souboj dvou svetu / Arthur 3: The War of the Two Worlds 2010 CZ/SK (1080p) | SkTorrent.eu

Cz-SkTorrent open Tracker, na volné zdielanie súborov. Pridajte sa k nasej komunite a získajte pristup k tisícom torrentov.

  • vysoká rýchlost
  • úplne zdarma
  • prevazne Slovenska a Ceska scena
  • ste tu s nami uz 5 rokov - Dakujeme
  • Vitaj Guest (Login) Ako stahovat
    torrenty?
    Torrenty:
    v1 textová
    v2 obrázková
    v3 online filmy
    Ako sa stat
    Uploaderom
    Online
    Filmy
    Forum
    Pravidlá
    BitTorrent
    klient
    Meno: Heslo:
    Zaregistrovat
    Po zaregistrovaní mozte volne stahovat
    Zabudol som heslo

    Torrent's details
    Arthur a souboj dvou svetu / Arthur 3: The War of the Two Worlds 2010 CZ/SK (1080p) Názov:Arthur a souboj dvou svetu / Arthur 3: The War of the Two Worlds 2010 CZ/SK (1080p) Hodnocení:N/A Stiahnut
    Pozriet Online
    Kategória:Filmy CZ/SK dabing Velikost:7.0 GB BitTorrent klient
    Pridaný: Súbory:
    Skontrolován:2020-10-18 Peerov:38 (Seed: 37, Leech: 1)
    Zaner:Animovany,Dobrodruzny,Fantasy,Rodinny Uploader:Uvidis, az ked budes
    VIP
    Kúp nám Pivo 1,10€

    Kúp nám Pivo
    Podporte nas na Facebooku !
    Pridaj do zalozky
    Pridaj do zalozky








    Jazyk: CZ/SK
    Titulky: žádné
    Rok vydání: 2010
    Délka: 101 min
    Žánr: Dobrodružný / Rodinný / Fantasy / Animovaný




    Video/Audio

    Video #0 : AVC at 8 510 kb/s
    Aspect : 1920 x 816 (2.353) at 24.000 fps

    Audio #0 : AC-3 at 320 kb/s
    Infos  : 2 channels, 48.0 kHz
    Language : cs

    Audio #1 : AC-3 at 320 kb/s
    Infos : 2 channels, 48.0 kHz
    Language : sk


    OBSAH
    Po úspěšném filmu Arthur a Pomocí lsti se Maltazard dostal do světa lidí. Má jasný cíl: sestavit armádu obřích seidů a převzít nadvládu nad celým světem. Vypadá to, že plány mu může zmařit jenom Arthur, který se ale musí nejdříve dostat do své ložnice a vrátit se do své původní velikosti! Uvězněný v drobném tělíčku Minimoje, se může samozřejmě spolehnout na pomoc Selenie a Betamechea a kupodivu také na Darkose, syna Maltazarda, který tvrdí, že chce přejít na jeho stranu. V závěrečném boji proti Maltazardovi, kdy jde Arthur se svými kamarády pěšky, jede na kole, v autě a dokonce i na motorce Harley Davidson, bude Arthur s kamarády potřebovat veškerou pomoc, která seženou. Bitva může začít!(oficiální text distributora)

    Video #0 : AVC at 8 510 kb/s
    Aspect : 1920 x 816 (2.353) at 24.000 fps

    Audio #0 : AC-3 at 320 kb/s
    Infos : 2 channels, 48.0 kHz
    Language : cs

    Audio #1 : AC-3 at 320 kb/s
    Infos : 2 channels, 48.0 kHz
    Language : sk

    Video
    ID : 1
    Format : AVC
    Format/Info : Advanced Video Codec
    Format profile : High@L4.1
    Format settings : CABAC / 5 Ref Frames
    Format settings, CABAC : Yes
    Format settings, Reference frames : 5 frames
    Codec ID : V_MPEG4/ISO/AVC
    Duration : 1 h 33 min
    Bit rate : 8 510 kb/s
    Width : 1 920 pixels
    Height : 816 pixels
    Display aspect ratio : 2.35:1
    Frame rate mode : Constant
    Frame rate : 24.000 FPS
    Color space : YUV
    Chroma subsampling : 4:2:0
    Bit depth : 8 bits
    Scan type : Progressive
    Bits/(Pixel*Frame) : 0.226
    Stream size : 5.45 GiB (91%)
    Title : h264 1920x816 40/17
    Writing library : x264 core 88 r1462 7fcffde
    Encoding settings : cabac=1 / ref=5 / deblock=1:-1:-1 / analyse=0x3:0x113 / me=umh / subme=7 / psy=1 / psy_rd=1.00:0.00 / mixed_ref=1 / me_range=16 / chroma_me=1 / trellis=2 / 8x8dct=1 / cqm=0 / deadzone=21,11 / fast_pskip=1 / chroma_qp_offset=-2 / threads=6 / sliced_threads=0 / nr=0 / decimate=1 / mbaff=0 / constrained_intra=0 / bframes=3 / b_pyramid=2 / b_adapt=2 / b_bias=0 / direct=3 / wpredb=1 / wpredp=2 / keyint=250 / keyint_min=25 / scenecut=40 / intra_refresh=0 / rc_lookahead=40 / rc=2pass / mbtree=1 / bitrate=8510 / ratetol=1.0 / qcomp=0.60 / qpmin=10 / qpmax=51 / qpstep=4 / cplxblur=20.0 / qblur=0.5 / vbv_maxrate=50000 / vbv_bufsize=50000 / ip_ratio=1.40 / aq=1:1.00
    Language : English
    Default : Yes
    Forced : No
    Track/Position : 0

    Audio #1
    ID : 2
    Format : AC-3
    Format/Info : Audio Coding 3
    Commercial name : Dolby Digital
    Codec ID : A_AC3
    Duration : 1 h 33 min
    Bit rate mode : Constant
    Bit rate : 320 kb/s
    Channel(s) : 2 channels
    Channel layout : L R
    Sampling rate : 48.0 kHz
    Frame rate : 31.250 FPS (1536 SPF)
    Bit depth : 32 bits
    Compression mode : Lossy
    Stream size : 215 MiB (4%)
    Title : ac3 48000Hz 2Ch.
    Language : Czech
    Service kind : Complete Main
    Default : Yes
    Forced : No
    Track/Position : 1

    Audio #2
    ID : 3
    Format : AC-3
    Format/Info : Audio Coding 3
    Commercial name : Dolby Digital
    Codec ID : A_AC3
    Duration : 1 h 33 min
    Bit rate mode : Constant
    Bit rate : 320 kb/s
    Channel(s) : 2 channels
    Channel layout : L R
    Sampling rate : 48.0 kHz
    Frame rate : 31.250 FPS (1536 SPF)
    Bit depth : 32 bits
    Compression mode : Lossy
    Stream size : 215 MiB (4%)
    Title : ac3 48000Hz 2Ch.
    Language : Slovak
    Service kind : Complete Main
    Default : Yes
    Forced : No
    Track/Position : 2










    lalik, Lunaris, QproTest, Jablonka, domikj,

    + Pridaj vlastnu verziu tohto torrentu +


    Upozornenie:
    Ziadny zo zobrazených súborov sa nenachádza na tomto serveri. Server slúzi len k síreniu vlastnorucne vytvorených aplikácií, videí, hudby ai. Autori stránok nenesú ziadnu zodpovednost za zverejnené odkazy, komentáre a obsah súborov. Vsetky komentáre, odkazy, súbory ktoré by svojou povahou mohli byt v rozpore zo zákonmi sem vkladáte na vlastnú zodpovednost. Autori stránok si vyhradzujú právo cenzúry odkazov, komentárov príp. súborov, ktoré by svojou povahou mohli byt v rozpore zo zákonmi a dobrými mravmi. Dodrzujte pravidlá!


    No comments...


    Back

    Na serveru se nenalézají zádne soubory. Za odkazy jsou výhradně zodpovědní uzivatelé a návstěvníci tohoto trackeru. Administrátor není zodpovědný za pridaný obsah ani za skody zpusobené uzivateli. Rozsirovat stránku nebo její obsah bez souhlasu ownera je zakázano. Nesmíte pouzívat tuto webovou stránku pro distribuovaní nebo download zádného materiálu pokud nemáte povolení od príslusného vlastníka práv. Uzivatelé jsou zodpovědní za dodrzování těchto pravidel a podmínek. Owner má právo kdykoliv změnit pravidla tohoto trackeru.

    [ Script trval: 0.022 sec. ] - [ GZIP: enabled ]
    BtiTracker (1.4.8) by Btiteam
    Je zhruba 00:04

    TOPlist