Tvoj účet nieje VIP.
Preto sú tvoje funkcie a možnosti značne obmedzené.
Pre aktiváciu VIP klikni sem.

Avatar (Extended Collector's Cut)(CZ/EN/SPA/HUN)(2009)(1080p)(Web-DL) = CSFD 82% | SkTorrent.eu

Cz-SkTorrent open Tracker, na volné zdielanie súborov. Pridajte sa k nasej komunite a získajte pristup k tisícom torrentov.

  • vysoká rýchlost
  • úplne zdarma
  • prevazne Slovenska a Ceska scena
  • ste tu s nami uz 5 rokov - Dakujeme
  • Vitaj Guest (Login) Ako stahovat
    torrenty?
    Torrenty:
    v1 textová
    v2 obrázková
    v3 online filmy
    Ako sa stat
    Uploaderom
    Online
    Filmy
    Forum
    Pravidlá
    BitTorrent
    klient
    Meno: Heslo:
    Zaregistrovat
    Po zaregistrovaní mozte volne stahovat
    Zabudol som heslo

    Torrent's details
    Avatar (Extended Collector's Cut)(CZ/EN/SPA/HUN)(2009)(1080p)(Web-DL) = CSFD 82% Názov:Avatar (Extended Collector's Cut)(CZ/EN/SPA/HUN)(2009)(1080p)(Web-DL) = CSFD 82% Hodnocení: Stiahnut
    Pozriet Online
    Kategória:HD Filmy Velikost:17.7 GB BitTorrent klient
    Pridaný: Súbory:
    Skontrolován:2022-09-20 Peerov:23 (Seed: 23, Leech: 0)
    Zaner:Akcni,Dobrodruzny,Fantasy,Sci-Fi Uploader:Uvidis, az ked budes
    VIP
    Kúp nám Pivo 1,10€

    Kúp nám Pivo
    Podporte nas na Facebooku !
    Pridaj do zalozky
    Pridaj do zalozky











    Akční / Dobrodružný / Sci-Fi / Fantasy
    USA / Velká Británie, 2009, 166 min (Special Edition: 171 min, Director's Cut: 178 min, Alternativní 155 min)


    Video: 1080p MKV
    Audio : EN/CZ/SPA/HUN Dabing - CZ-DTS-5.1- 1 510 kb/s , EN-DTS-5.1- 1 510 kb/s ,
    SPA-DTS -5.1- 754 kb/s , HUN-AC3-5.1- 448 kb/s
    Titulky : CZ/EN

    Režie: James Cameron
    Scénář: James Cameron
    Kamera: Mauro Fiore
    Hudba: James Horner
    Hrají: Sam Worthington, Zoe Saldana, Stephen Lang, (Michelle Rodriguez - ), Giovanni Ribisi, Joel David Moore, CCH Pounder, Wes Studi, Laz Alonso
    Produkce: James Cameron, Jon Landau
    Střih: Stephen E. Rivkin, John Refoua, James Cameron
    Zvuk: Gwendolyn Yates Whittle, Gary Summers, Andy Nelson, Addison Teague, Christopher Boyes
    Scénografie: Rick Carter, Robert Stromberg, Nick Bassett, Andy McLaren
    Masky: Mike Smithson, Sarah Rubano, Rick Findlater, Kenny Niederbaumer
    Kostýmy: Mayes C. Rubeo, Deborah Lynn Scott

    Náhled








    Avatar před námi otevírá neuvěřitelný svět za hranicemi naší fantazie, svět střetu dvou naprosto odlišných civilizací. Nově objevená vzdálená planeta Pandora je mírumilovné místo s obyvatelstvem - Na’vi, žijícím v souladu s divukrásnou vegetací planety. Posádka vyslaná ze Země na své průzkumné misi objeví na Pandoře velmi cenný minerál, který by měl na Zemi nevyčíslitelnou hodnotu. Pobyt na Pandoře je ovšem pro člověka možný teprve po vytvoření jeho genetického dvojníka, hybrida Avataru, který může být ovládán psychikou oddělenou od lidského těla a fyzicky odpovídá původnímu obyvatelstvu Pandory, které má fluorescentní modrou kůži a dosahuje 3m výšky. Na tuto náročnou misi je vybrán mezi jinými také Jake Sully (Sam Worthington), bývalý námořník, který byl při jedné ze svých předešlých misí paralyzován od pasu dolů. A právě šance opět chodit přiměla Jakea, aby se do programu Avatar přihlásil.
    Průzkumná mise je vyslána a po přistání na Pandoře je zcela ohromena úžasnou rozmanitostí místní vegetace. Stromy dosahují výšky mrakodrapů a světélkující prales je plný nádherných tvorů, které jste nikdy neviděli, ale také hrozných prehistorických predátorů. To je jen zrnko překvapení, které posádku čeká. I když se zdá, že po počáteční nedůvěře lidí Na’vi se posádce podařilo adaptovat a také získat prostor pro diplomatickou misi, pandořané se rozhodně nehodlají nechat kolonizovat a dojde ke tvrdému střetu. Jake, který se postupně sblížil s místním obyvatelstvem, a především s místní princeznou Neytiri, stojí před rozhodnutím, za koho bojovat ve finální bitvě, která má rozhodnout o osudu a vývoji celého světa. (Bontonfilm)




    Formát                                   : Matroska
    Format version                           : Version 2
    Velikost souboru                         : 17,7 GiB
    Duration                                 : 2 h 58 min
    Celkový BitRate                          : 14,2 Mb/s
    Název filmu                              : Avatar by Erwin
    Encoded date                             : UTC 2014-04-30 11:16:59
    Použitý software                         : mkvmerge v3.0.0 ('Hang up your Hang-Ups') built on Dec 29 2009 00:21:20
    Enkódoval                                : libebml v0.7.7 + libmatroska v0.8.1
    Attachments                              : AvatarPoster.jpg

    Video
    ID                                       : 1
    Formát                                   : AVC
    Formát/Info                              : Advanced Video Codec
    Format profile                           : Main@L4.2
    Format settings                          : CABAC / 4 Ref Frames
    Format settings, CABAC                   : Ano
    Format settings, Reference frames        : 4 frames
    Codec ID                                 : V_MPEG4/ISO/AVC
    Duration                                 : 2 h 58 min
    Bit rate                                 : 9 731 kb/s
    Šířka                                    : 1 920pixely
    Výška                                    : 1 080pixely
    Poměr stran                              : 16:9
    Frame rate mode                          : Constant
    Frame rate                               : 59,940 FPS
    Color space                              : YUV
    Chroma subsampling                       : 4:2:0
    Bit depth                                : 8 bits
    Scan type                                : Progressive
    Bits/(Pixel*Frame)                       : 0.078
    Stream size                              : 12,1 GiB (68%)
    Enkódoval                                : x264 core 122
    Nastavení enkoderu                       : cabac=1 / ref=1 / deblock=1:0:0 / analyse=0x1:0x111 / me=hex / subme=2 / psy=1 / psy_rd=1,00:0,00 / mixed_ref=0 / me_range=16 / chroma_me=1 / trellis=0 / 8x8dct=0 / cqm=0 / deadzone=21,11 / fast_pskip=1 / chroma_qp_offset=0 / threads=6 / sliced_threads=0 / nr=0 / decimate=1 / interlaced=0 / bluray_compat=0 / constrained_intra=0 / bframes=3 / b_pyramid=2 / b_adapt=1 / b_bias=0 / direct=1 / weightb=1 / open_gop=0 / weightp=1 / keyint=600 / keyint_min=60 / scenecut=40 / intra_refresh=0 / rc_lookahead=10 / rc=crf / mbtree=1 / crf=20,0 / qcomp=0,60 / qpmin=3 / qpmax=69 / qpstep=4 / ip_ratio=1,40 / aq=1:1,00
    Jazyk                                    : English
    Default                                  : Ne
    Forced                                   : Ne
    Color range                              : Limited
    Color primaries                          : BT.709
    Transfer characteristics                 : BT.709
    Matrix coefficients                      : BT.709

    Audio #1
    ID                                       : 2
    Formát                                   : DTS
    Formát/Info                              : Digital Theater Systems
    Codec ID                                 : A_DTS
    Duration                                 : 2 h 58 min
    Bit rate mode                            : Constant
    Bit rate                                 : 1 510 kb/s
    Kanál(y)                                 : 6 kanály
    Channel layout                           : C L R Ls Rs LFE
    Sampling rate                            : 48,0 kHz
    Frame rate                               : 93,750 FPS (512 SPF)
    Bit depth                                : 24 bits
    Compression mode                         : Lossy
    Video delay                              : 11 ms
    Stream size                              : 1,88 GiB (11%)
    Jazyk                                    : English
    Default                                  : Ne
    Forced                                   : Ne

    Audio #2
    ID                                       : 3
    Formát                                   : DTS
    Formát/Info                              : Digital Theater Systems
    Codec ID                                 : A_DTS
    Duration                                 : 2 h 58 min
    Bit rate mode                            : Constant
    Bit rate                                 : 1 509 kb/s
    Kanál(y)                                 : 6 kanály
    Channel layout                           : C L R Ls Rs LFE
    Sampling rate                            : 48,0 kHz
    Frame rate                               : 93,750 FPS (512 SPF)
    Bit depth                                : 16 bits
    Compression mode                         : Lossy
    Stream size                              : 1,88 GiB (11%)
    Jazyk                                    : Czech
    Default                                  : Ano
    Forced                                   : Ne

    Audio #3
    ID                                       : 4
    Formát                                   : DTS
    Formát/Info                              : Digital Theater Systems
    Codec ID                                 : A_DTS
    Duration                                 : 2 h 58 min
    Bit rate mode                            : Constant
    Bit rate                                 : 754 kb/s
    Kanál(y)                                 : 6 kanály
    Channel layout                           : C L R Ls Rs LFE
    Sampling rate                            : 48,0 kHz
    Frame rate                               : 93,750 FPS (512 SPF)
    Bit depth                                : 24 bits
    Compression mode                         : Lossy
    Video delay                              : 11 ms
    Stream size                              : 961 MiB (5%)
    Jazyk                                    : Spanish
    Default                                  : Ne
    Forced                                   : Ne

    Audio #4
    ID                                       : 5
    Formát                                   : AC-3
    Formát/Info                              : Audio Coding 3
    Commercial name                          : Dolby Digital
    Codec ID                                 : A_AC3
    Duration                                 : 2 h 58 min
    Bit rate mode                            : Constant
    Bit rate                                 : 448 kb/s
    Kanál(y)                                 : 6 kanály
    Channel layout                           : L R C LFE Ls Rs
    Sampling rate                            : 48,0 kHz
    Frame rate                               : 31,250 FPS (1536 SPF)
    Compression mode                         : Lossy
    Stream size                              : 571 MiB (3%)
    Jazyk                                    : Hungarian
    Service kind                             : Complete Main
    Default                                  : Ne
    Forced                                   : Ne

    Text #1
    ID                                       : 6
    Formát                                   : UTF-8
    Codec ID                                 : S_TEXT/UTF8
    Codec ID/Info                            : UTF-8 Plain Text
    Titul                                    : CZ Forced Titulky
    Jazyk                                    : Czech
    Default                                  : Ne
    Forced                                   : Ne

    Text #2
    ID                                       : 7
    Formát                                   : UTF-8
    Codec ID                                 : S_TEXT/UTF8
    Codec ID/Info                            : UTF-8 Plain Text
    Jazyk                                    : English
    Default                                  : Ne
    Forced                                   : Ne

    Text #3
    ID                                       : 8
    Formát                                   : UTF-8
    Codec ID                                 : S_TEXT/UTF8
    Codec ID/Info                            : UTF-8 Plain Text
    Jazyk                                    : English
    Default                                  : Ne
    Forced                                   : Ne

    Text #4
    ID                                       : 9
    Formát                                   : UTF-8
    Codec ID                                 : S_TEXT/UTF8
    Codec ID/Info                            : UTF-8 Plain Text
    Titul                                    : ENG Forced Titulky
    Jazyk                                    : English
    Default                                  : Ne
    Forced                                   : Ne

    Text #5
    ID                                       : 10
    Formát                                   : UTF-8
    Codec ID                                 : S_TEXT/UTF8
    Codec ID/Info                            : UTF-8 Plain Text
    Titul                                    : ENG Titulky
    Jazyk                                    : English
    Default                                  : Ne
    Forced                                   : Ne

    Text #6
    ID                                       : 11
    Formát                                   : UTF-8
    Codec ID                                 : S_TEXT/UTF8
    Codec ID/Info                            : UTF-8 Plain Text
    Titul                                    : CZ Titulky
    Jazyk                                    : Czech
    Default                                  : Ne
    Forced                                   : Ne


















    MartinZetek, polda712, Trismegistos, Charlesp, prcekk666, PMMP, TRUESTAR, vaclavwaran, rozcuchanbykenn, rychlikcz, Monda249, DarkMarkCZ, DarkMarkCZ, Hynku, Vlastancz,

    + Pridaj vlastnu verziu tohto torrentu +


    Upozornenie:
    Ziadny zo zobrazených súborov sa nenachádza na tomto serveri. Server slúzi len k síreniu vlastnorucne vytvorených aplikácií, videí, hudby ai. Autori stránok nenesú ziadnu zodpovednost za zverejnené odkazy, komentáre a obsah súborov. Vsetky komentáre, odkazy, súbory ktoré by svojou povahou mohli byt v rozpore zo zákonmi sem vkladáte na vlastnú zodpovednost. Autori stránok si vyhradzujú právo cenzúry odkazov, komentárov príp. súborov, ktoré by svojou povahou mohli byt v rozpore zo zákonmi a dobrými mravmi. Dodrzujte pravidlá!





    0
    KnightRight
    Ratio 0.17

    Clen

    20/09/2022 20.50.14
    Pockam si na tu remasterovanou verzi ve 4K, ktera je ted od zari v kine.


    --------------
    >> 20/09/2022 23.58.58
    COL_DMITRIJ: rozdíl žádný

    0
    muric
    Ratio 0.56

    Clen

    20/09/2022 20.13.33
    cesky jazyk sem tam nenasel

    0
    maxtor205
    Ratio 6.77

    Member+

    20/09/2022 14.28.52
    Ve 4K už to je dávno, má to skoro 90 Gb.Ve 3D taky, to má 46 Gb.  


    --------------
    >> 20/09/2022 14.52.14
    maysa33: Avatar nikde na svete nevisiel v 4K



    --------------
    >> 20/09/2022 16.36.22
    tifere: James Cameron's Avatar (2009) potentially coming to 4K Blu-ray in 2022...

    James Cameron's “Avatar” lands a special theatrical re-release in a new 4K high dynamic range restoration on September 23 to remind audiences of the sprawling epic ahead of its sequel, “Avatar: The Way of Water,” premiering December 16.


    --------------
    >> 20/09/2022 17.06.14
    maysa33: Áno na toto čakáme už 13 rokov

    0
    Otto_Katz
    Ratio 0.49

    Clen

    20/09/2022 11.51.53
    Upss muj rip z ulozto, ale v pohode, ten tam koluje uz par let, navic ho tam nekteri maji i s mym nickname Petr Leicester ktery se ani neobtezovali smazat.

    1
    Koryto01
    Ratio 0.44

    Clen

    20/09/2022 11.11.55
    ted bude v kinech vylepšená verze 4k i ve 3d.


    Back

    Na serveru se nenalézají zádne soubory. Za odkazy jsou výhradně zodpovědní uzivatelé a návstěvníci tohoto trackeru. Administrátor není zodpovědný za pridaný obsah ani za skody zpusobené uzivateli. Rozsirovat stránku nebo její obsah bez souhlasu ownera je zakázano. Nesmíte pouzívat tuto webovou stránku pro distribuovaní nebo download zádného materiálu pokud nemáte povolení od príslusného vlastníka práv. Uzivatelé jsou zodpovědní za dodrzování těchto pravidel a podmínek. Owner má právo kdykoliv změnit pravidla tohoto trackeru.

    [ Script trval: 0.082 sec. ] - [ GZIP: enabled ]
    Je zhruba 08:12
    memcache

    TOPlist