Tvoj účet nieje VIP.
Preto sú tvoje funkcie a možnosti značne obmedzené.
Pre aktiváciu VIP klikni sem.

Bílý Tesák 2 / White Fang 2 Myth of the White Wolf (CZ/EN)(1994)(1080p)(WEB-DL) = CSFD 49% | SkTorrent.eu

Cz-SkTorrent open Tracker, na volné zdieľanie súborov. Pridajte sa k našej komunite a získajte prístup k tisícom torrentov.

  • vysoká rýchlosť
  • úplne zdarma
  • prevažne Slovenská a Česká scéna
  • ste tu s nami už 10 rokov - Ďakujeme
  • Vitaj Guest (Login) Ako stahovat
    torrenty?
    Torrenty:
    v1 textová
    v2 obrázková
    Ako sa stat
    Uploaderom
    Online
    Filmy
    Forum
    Pravidlá
    SkTSocial
    BitTorrent
    klient
    Meno: Heslo:
    Zaregistrovat
    Po zaregistrovaní mozte volne stahovat
    Zabudol som heslo

    Bílý Tesák 2 / White Fang 2 Myth of the White Wolf (CZ/EN)(1994)(1080p)(WEB-DL) = CSFD 49% Názov:Bílý Tesák 2 / White Fang 2 Myth of the White Wolf (CZ/EN)(1994)(1080p)(WEB-DL) = CSFD 49% Hodnocení:N/A Stiahnut
    Pozriet Online
    Kategória:HD Filmy - Velikost:9.1 GB BitTorrent klient
    Pridaný: Súbory:
    Skontrolován:2023-05-20 Peerov:15 (Seed: 15, Leech: 0)
    Zaner:Dobrodruzny,Rodinny Uploader:Uvidis, az ked budes
    VIP
    Kúp nám Pivo 1,10€

    Kúp nám Pivo

    Pridaj do zalozky
    Pridaj do zalozky






    Dobrodružný / Rodinný
    USA, 1994, 102 min

    ČSFD: https://www.csfd.cz/film/25945-bily-tesak-2/prehled/

    Režie: Ken Olin

    Scénář: David Fallon

    Kamera: Hiro Narita

    Hudba: John Debney

    Hrají: Scott Bairstow, Charmaine Craig, Anthony Ruivivar, Victoria Racimo, Alfred Molina, Geoffrey Lewis, Ethan Hawke, Matthew Cowles, Paul Coeur, Tom Heaton

    Produkce: Preston Fischer

    Střih: Elba Sanchez-Short

    Zvuk: John Asman, Rob Young

    Scénografie: Cary White, Tedd Kuchera

    Masky: Ryan McCormick, Rosalina Da Silva

    Kostýmy: Trish Keating


    Obsah:

    Aljaška na počátku tohoto století byla krásná, romantická, ale i nebezpečná země. Uprostřed hlubokých lesů, pod zasněženými skalnatými štíty rýžuje Henry Casey v klidu a pokoji písek zlatonosné řeky - a na zápraží solidního srubu zaslouženě odpočívá po svých posledních dobrodružstvích Bílý Tesák. Jeho vlčí a psí instinkty ale možná už vzdáleně signalizují začátek nové napínavé cesty... Tahle mírumilovná selanka skutečně dlouho netrvá, a když je Henry po ztroskotání v peřejích zachráněn indiánskou princeznou Lily, zjistí, že je pokládán na lidské převtělení vlka, který jediný může její hladovějící kmen přivést opět na stopu ztracených stád karibu. Tak se ze staré indiánské legendy zrodil Bílý Vlk, který se spolu s Lily a Bílým Tesákem (jenž se po malé aféře s bílou vlčicí zase včas vrátil) vydává na nebezpečnou stezku. Čeká ho na ní boj s tlupou proradného reverenda Druryho, uvězněné stádo karibu a láska váhající Lily, která si nakonec (k ulehčení všech) přece jen vybrala... (oficiální text distributora)


    Format                      : Matroska
    Format version              : Version 4
    File size                   : 9.07 GiB
    Duration                    : 1 h 46 min
    Overall bit rate mode       : Variable
    Overall bit rate            : 12.2 Mb/s
    Encoded date                : UTC 2023-05-20 06:51:54
    Writing application         : mkvmerge v76.0 ('Celebration') 64-bit
    Writing library             : libebml v1.4.4 + libmatroska v1.7.1

    Video
    ID                          : 1
    Format                      : AVC
    Format/Info                 : Advanced Video Codec
    Format profile              : High@L4
    Format settings             : CABAC / 4 Ref Frames
    Format settings, CABAC      : Yes
    Format settings, Reference  : 4 frames
    Codec ID                    : V_MPEG4/ISO/AVC
    Duration                    : 1 h 46 min
    Bit rate mode               : Variable
    Bit rate                    : 11.5 Mb/s
    Maximum bit rate            : 15.0 Mb/s
    Width                       : 1 920 pixels
    Height                      : 1 080 pixels
    Display aspect ratio        : 16:9
    Frame rate mode             : Constant
    Frame rate                  : 23.976 (24000/1001) FPS
    Color space                 : YUV
    Chroma subsampling          : 4:2:0
    Bit depth                   : 8 bits
    Scan type                   : Progressive
    Bits/(Pixel*Frame)          : 0.230
    Stream size                 : 8.49 GiB (94%)
    Title                       : Bily.tesak.2.White.Fang.2.Myth.of.the.White.Wolf.CZ.EN.1994.1080p.WEB-DL.DD+5.1.H.264
    Writing library             : x264 core 148 r2623 d5b2374
    Encoding settings           : cabac=1 / ref=4 / deblock=1:-1:-1 / analyse=0x3:0x133 / me=umh / subme=9 / psy=1 / psy_rd=1.00:0.15 / mixed_ref=1 / me_range=24 / chroma_me=1 / trellis=2 / 8x8dct=1 / cqm=0 / deadzone=21,11 / fast_pskip=1 / chroma_qp_offset=-3 / threads=34 / lookahead_threads=5 / sliced_threads=0 / nr=150 / decimate=1 / interlaced=0 / bluray_compat=0 / constrained_intra=0 / bframes=8 / b_pyramid=2 / b_adapt=2 / b_bias=0 / direct=3 / weightb=1 / open_gop=0 / weightp=2 / keyint=120 / keyint_min=61 / scenecut=0 / intra_refresh=0 / rc_lookahead=120 / rc=crf / mbtree=1 / crf=18.0 / qcomp=0.60 / qpmin=0 / qpmax=69 / qpstep=4 / vbv_maxrate=15000 / vbv_bufsize=31250 / crf_max=0.0 / nal_hrd=vbr / filler=0 / ip_ratio=1.40 / aq=3:1.00
    Language                    : English
    Default                     : Yes
    Forced                      : No
    Color range                 : Limited
    Color primaries             : BT.709
    Transfer characteristics    : BT.709
    Matrix coefficients         : BT.709

    Audio #1
    ID                          : 2
    Format                      : AC-3
    Format/Info                 : Audio Coding 3
    Commercial name             : Dolby Digital
    Codec ID                    : A_AC3
    Duration                    : 1 h 46 min
    Bit rate mode               : Constant
    Bit rate                    : 128 kb/s
    Channel(s)                  : 2 channels
    Channel layout              : L R
    Sampling rate               : 48.0 kHz
    Frame rate                  : 31.250 FPS (1536 SPF)
    Compression mode            : Lossy
    Stream size                 : 97.2 MiB (1%)
    Title                       : AC-3 2.0 @ 128 kb/s Disney+
    Language                    : Czech
    Service kind                : Complete Main
    Default                     : Yes
    Forced                      : No

    Audio #2
    ID                          : 3
    Format                      : E-AC-3
    Format/Info                 : Enhanced AC-3
    Commercial name             : Dolby Digital Plus
    Codec ID                    : A_EAC3
    Duration                    : 1 h 46 min
    Bit rate mode               : Constant
    Bit rate                    : 640 kb/s
    Channel(s)                  : 6 channels
    Channel layout              : L R C LFE Ls Rs
    Sampling rate               : 48.0 kHz
    Frame rate                  : 31.250 FPS (1536 SPF)
    Compression mode            : Lossy
    Stream size                 : 486 MiB (5%)
    Title                       : E-AC-3 5.1 @ 640 kb/s
    Language                    : English
    Service kind                : Complete Main
    Default                     : No
    Forced                      : No

    Text #1
    ID                          : 4
    Format                      : UTF-8
    Codec ID                    : S_TEXT/UTF8
    Codec ID/Info               : UTF-8 Plain Text
    Duration                    : 1 h 41 min
    Bit rate                    : 22 b/s
    Frame rate                  : 0.127 FPS
    Count of elements           : 773
    Stream size                 : 16.9 KiB (0%)
    Title                       : Full
    Language                    : Czech
    Default                     : No
    Forced                      : No

    Text #2
    ID                          : 5
    Format                      : UTF-8
    Codec ID                    : S_TEXT/UTF8
    Codec ID/Info               : UTF-8 Plain Text
    Duration                    : 1 h 41 min
    Bit rate                    : 25 b/s
    Frame rate                  : 0.129 FPS
    Count of elements           : 783
    Stream size                 : 18.6 KiB (0%)
    Title                       : Full
    Language                    : English
    Default                     : No
    Forced                      : No

    Text #3
    ID                          : 6
    Format                      : UTF-8
    Codec ID                    : S_TEXT/UTF8
    Codec ID/Info               : UTF-8 Plain Text
    Duration                    : 1 h 41 min
    Bit rate                    : 30 b/s
    Frame rate                  : 0.160 FPS
    Count of elements           : 977
    Stream size                 : 22.7 KiB (0%)
    Title                       : SDH
    Language                    : English
    Default                     : No
    Forced                      : No

    Text #4
    ID                          : 7
    Format                      : UTF-8
    Codec ID                    : S_TEXT/UTF8
    Codec ID/Info               : UTF-8 Plain Text
    Duration                    : 1 h 45 min
    Bit rate                    : 23 b/s
    Frame rate                  : 0.085 FPS
    Count of elements           : 536
    Stream size                 : 17.9 KiB (0%)
    Title                       : Full
    Language                    : German
    Default                     : No
    Forced                      : No

    Menu
    00:00:00.000                : en:Chapter 01
    00:11:22.328                : en:Chapter 02
    00:21:22.328                : en:Chapter 03
    00:30:06.328                : en:Chapter 04
    00:41:40.328                : en:Chapter 05
    00:56:41.328                : en:Chapter 06
    01:08:01.328                : en:Chapter 07
    01:19:34.328                : en:Chapter 08
    01:34:30.328                : en:Chapter 09
    01:43:00.328                : en:Chapter 10













    Filmy CZ/SK dabing


    Upozornenie:
    Ziadny zo zobrazených súborov sa nenachádza na tomto serveri. Server slúzi len k síreniu vlastnorucne vytvorených aplikácií, videí, hudby ai. Autori stránok nenesú ziadnu zodpovednost za zverejnené odkazy, komentáre a obsah súborov. Vsetky komentáre, odkazy, súbory ktoré by svojou povahou mohli byt v rozpore zo zákonmi sem vkladáte na vlastnú zodpovednost. Autori stránok si vyhradzujú právo cenzúry odkazov, komentárov príp. súborov, ktoré by svojou povahou mohli byt v rozpore zo zákonmi a dobrými mravmi. Dodrzujte pravidlá!





    1
    evik1
    Ratio 2.16

    Member+

    22/05/2023 22.40.58
    1 byla o neco lepsi ale i tak se mi to libylo


    Back

    Na serveru se nenalézají zádne soubory. Za odkazy jsou výhradně zodpovědní uzivatelé a návstěvníci tohoto trackeru. Administrátor není zodpovědný za pridaný obsah ani za skody zpusobené uzivateli. Nesmíte pouzívat tuto webovou stránku pro distribuovaní nebo download zádného materiálu pokud nemáte povolení od príslusného vlastníka práv. Uzivatelé jsou zodpovědní za dodrzování těchto pravidel a podmínek. Owner má právo kdykoliv změnit pravidla tohoto trackeru.

    [ Script trval: 0.079 sec. ] - [ GZIP: enabled ]
    Je zhruba 11:08
    memcache

    TOPlist