Tvoj účet nieje VIP.
Preto sú tvoje funkcie a možnosti značne obmedzené.
Pre aktiváciu VIP klikni sem.

BBCParadise - Nicole Aniston - Cramming Blonde Cooch In The Shower 720p | SkTorrent.eu

Cz-SkTorrent open Tracker, na volné zdielanie súborov. Pridajte sa k nasej komunite a získajte pristup k tisícom torrentov.

  • vysoká rýchlost
  • úplne zdarma
  • prevazne Slovenska a Ceska scena
  • ste tu s nami uz 5 rokov - Dakujeme
  • Vitaj Guest (Login) Ako stahovat
    torrenty?
    Torrenty:
    v1 textová
    v2 obrázková
    v3 online filmy
    Ako sa stat
    Uploaderom
    Online
    Filmy
    Forum
    Pravidlá
    BitTorrent
    klient
    pruzinky
    Meno: Heslo:
    Zaregistrovat
    Po zaregistrovaní mozte volne stahovat
    Zabudol som heslo

    Torrent's details
    BBCParadise - Nicole Aniston - Cramming Blonde Cooch In The Shower 720p Názov:BBCParadise - Nicole Aniston - Cramming Blonde Cooch In The Shower 720p Hodnocení: Stiahnut
    Pozriet Online
    Kategória:xXx Velikost:589.8 MB BitTorrent klient
    Pridaný: Súbory:
    Skontrolován:2020-06-02 Peerov:0 (Seed: 0, Leech: 0)
    Zaner: Uploader:Uvidis, az ked budes
    VIP
    Kúp nám Pivo 1,10€

    Kúp nám Pivo
    Podporte nas na Facebooku !
    Pridaj do zalozky
    Pridaj do zalozky






    Popis
    BBCParadise - Nicole Aniston - Cramming Blonde Cooch In The Shower ⭐ 720p HD ⭐ XXX H264-SexG



    Dĺžka : 0 hod  35 min  12 sek
    Formát : MKV, Matroska Video File
    Kategória : XXX 18+







    Unique ID                                : 259814710503268565511864534198968768989 (0xC3767E3B7A3D3EC9D97066AF5D71D9DD)
    Celý názov a cesta                       : ... BBCParadise - Nicole Aniston [720p HD].mkv
    Formát                                   : Matroska
    Format version                           : Version 4
    Veľkosť súboru                           : 590 MiB
    Trvanie                                  : 35 min 12 sek.
    Celkový dátový tok                       : 2 343 kb/s
    Dátum zakódovania                        : UTC 2020-06-02 10:49:27
    Použitý software                         : mkvmerge v47.0.0 ( 'Black Flag' ) 64-bit
    Zakódoval                                : libebml v1.3.10 + libmatroska v1.5.2 / Lavf58.43.100
    Obal                                     : Yes
    Attachments                              : Cover.jpg
    RLS                                      : SexG ⭐ Downloaded to www.hd-cztorrent.cz

    Video
    ID                                       : 1
    Formát                                   : AVC
    Formát/Info                              : Advanced Video Codec
    Profil formátu                           : High@L3.1
    Nastavenia formátu                       : CABAC / 1 Ref Frames
    Format settings, CABAC                   : Áno
    Format settings, Reference frames        : 1snímka
    Format settings, GOP                     : M=1, N=24
    Označenie kodeku                         : V_MPEG4/ISO/AVC
    Trvanie                                  : 35 min 12 sek.
    Režim dátového toku                      : Konštantný dátový tok
    Dátový tok                               : 2 210 kb/s
    Šírka                                    : 1 280 pixelov
    Výška                                    : 720 pixelov
    Pomer strán                              : 16:9
    Režim frekvencie snímok                  : Konštantný
    Frekvencia snímok                        : 23,976 (24000/1001) snímok/sek.
    Color space                              : YUV
    Chroma subsampling                       : 4:2:0
    Bit depth                                : 8 bitov
    Scan type                                : Progresívne
    Bitov/(Bod*Snímka)                       : 0.100
    Stream size                              : 557 MiB (94%)
    Titul                                    : H264 1280x720 16:9
    Default                                  : Áno
    Forced                                   : Nie
    Color range                              : Limited
    Color primaries                          : BT.709
    Transfer characteristics                 : BT.709
    Matrix coefficients                      : BT.709

    Audio
    ID                                       : 2
    Formát                                   : AAC LC
    Formát/Info                              : Advanced Audio Codec Low Complexity
    Označenie kodeku                         : A_AAC-2
    Trvanie                                  : 35 min 12 sek.
    Dátový tok                               : 128 kb/s
    Kanál(y)                                 : 2 kanály
    Channel layout                           : L R
    Sampling rate                            : 48,0 kHz
    Frekvencia snímok                        : 46,875 snímok/sek. (1024 SPF)
    Compression mode                         : Lossy
    Stream size                              : 32,3 MiB (5%)
    Titul                                    : AAC 48000Hz 2Ch.
    Default                                  : Áno
    Forced                                   : Nie

       










    + Pridaj vlastnu verziu tohto torrentu +


    Upozornenie:
    Ziadny zo zobrazených súborov sa nenachádza na tomto serveri. Server slúzi len k síreniu vlastnorucne vytvorených aplikácií, videí, hudby ai. Autori stránok nenesú ziadnu zodpovednost za zverejnené odkazy, komentáre a obsah súborov. Vsetky komentáre, odkazy, súbory ktoré by svojou povahou mohli byt v rozpore zo zákonmi sem vkladáte na vlastnú zodpovednost. Autori stránok si vyhradzujú právo cenzúry odkazov, komentárov príp. súborov, ktoré by svojou povahou mohli byt v rozpore zo zákonmi a dobrými mravmi. Dodrzujte pravidlá!


    No comments...


    Back

    Na serveru se nenalézají zádne soubory. Za odkazy jsou výhradně zodpovědní uzivatelé a návstěvníci tohoto trackeru. Administrátor není zodpovědný za pridaný obsah ani za skody zpusobené uzivateli. Rozsirovat stránku nebo její obsah bez souhlasu ownera je zakázano. Nesmíte pouzívat tuto webovou stránku pro distribuovaní nebo download zádného materiálu pokud nemáte povolení od príslusného vlastníka práv. Uzivatelé jsou zodpovědní za dodrzování těchto pravidel a podmínek. Owner má právo kdykoliv změnit pravidla tohoto trackeru.

    [ Script trval: 0.022 sec. ] - [ GZIP: enabled ]
    BtiTracker (1.4.8) by Btiteam
    Je zhruba 08:14

    TOPlist