Tvoj účet nieje VIP.
Preto sú tvoje funkcie a možnosti značne obmedzené.
Pre aktiváciu VIP klikni sem.

Banda / The Boys S03E07 (CZ/EN)[WebRip][1080p] = CSFD 89% | SkTorrent.eu

Cz-SkTorrent open Tracker, na volné zdielanie súborov. Pridajte sa k nasej komunite a získajte pristup k tisícom torrentov.

  • vysoká rýchlost
  • úplne zdarma
  • prevazne Slovenska a Ceska scena
  • ste tu s nami uz 5 rokov - Dakujeme
  • Vitaj Guest (Login) Ako stahovat
    torrenty?
    Torrenty:
    v1 textová
    v2 obrázková
    v3 online filmy
    Ako sa stat
    Uploaderom
    Online
    Filmy
    Forum
    Pravidlá
    BitTorrent
    klient
    Meno: Heslo:
    Zaregistrovat
    Po zaregistrovaní mozte volne stahovat
    Zabudol som heslo

    Torrent's details
    Banda / The Boys S03E07 (CZ/EN)[WebRip][1080p] = CSFD 89% Názov:Banda / The Boys S03E07 (CZ/EN)[WebRip][1080p] = CSFD 89% Hodnocení: Stiahnut
    Pozriet Online
    Kategória:Seriál Velikost:3.7 GB BitTorrent klient
    Pridaný: Súbory:
    Skontrolován:2022-07-01 Peerov:44 (Seed: 44, Leech: 0)
    Zaner:Akcni,Drama,Komedie,Krimi Uploader:Uvidis, az ked budes
    VIP
    Kúp nám Pivo 1,10€

    Kúp nám Pivo
    Podporte nas na Facebooku !
    Pridaj do zalozky
    Pridaj do zalozky




    Jazyk: CZ , EN
    Titulky: CZ, EN
    Odkaz na CSFD: https://www.csfd.cz/film/657621-the-boys/prehled/
    Akční / Komedie / Krimi
    USA, 2022, (Minutáž: 60–61 min)




    Popis:
    Seriál The Boys, adaptován z komiksové předlohy stejného názvu a vytvořen hercem a režisérem Sethem Rogenem, je zasazen do alternativního vesmíru, kde jednotlivci obdaření supermocí jsou uznáváni širokou veřejností jako superhrdinové. Tyto superhrdiny vlastní silná společnost Vought International, která je prodává a zpeněžuje. Tito superhrdinové se ve svém osobním životě chovají arogantně a rádi zneužívají svoje superschopnosti. Seriál sleduje primárně dvě skupiny: Sedm, neboli přední tým superhrdinů Vought International a skupinu viligantů The Boys, která se snaží zničit tyto zkorumpované superhrdiny. Skupina The Boys je vedena Billym Butcherem (Karl Urban), který nenávidí všechny superhrdiny a skupina Sedm je vedena egoistickým a nestabilním Homelanderem (Antony Starr). Mimo jejich konflikt sleduje seriál také nové členy každého týmu: Hugh "Hughie" Campbell (Jack Quaid), který se přidá ke skupině The Boys hned poté, co jeho přítelkyně je zabita jedním ze skupiny Sedm, a Annie January/Starlight (Erin Moriarty), která se přidá do skupiny Sedm, ale v zápětí zjišťuje, že superhrdiny, které obdivovala, se nechovají tak, jak si představovala.



    Formát                                   : Matroska
    Format version                           : Version 4
    Velikost souboru                         : 3,70 GiB
    Duration                                 : 1 h 4 min
    Celkový BitRate                          : 8 154 kb/s
    Název filmu                              : A nyní svíčka, která ti posvítí na cestu do postele
    Description                              : Máte narozeniny? Přijďte je oslavit k nám do Buster Beaver’s s naším novým VIP narozeninovým balíčkem Deluxe: salónek až pro 30 osob plus 10 obřích pizz a 10 džbánků limonád dle vašeho výběru v ceně! A samozřejmě zvláštní představení s bobrem Busterem a jeho ansámblem lesních přátel! To vše pouze za 199,99 $ + DPH! Pizzerie Buster Beaver’s! Tam kde rozhodují děti®!
    Použitý software                         : Lavf58.45.100
    Enkódoval                                : Lavf58.45.100
    ErrorDetectionType                       : Per level 1
    DATE                                     : 2022
    EPISODE_ID                               : 7
    SEASON_NUMBER                            : 3
    SHOW                                     : The Boys

    Video
    ID                                       : 1
    Formát                                   : AVC
    Formát/Info                              : Advanced Video Codec
    Format profile                           : High@L4
    Format settings                          : CABAC / 4 Ref Frames
    Format settings, CABAC                   : Ano
    Format settings, Reference frames        : 4 frames
    Codec ID                                 : V_MPEG4/ISO/AVC
    Duration                                 : 1 h 4 min
    Bit rate mode                            : Constant
    Bit rate                                 : 7 608 kb/s
    Nominal bit rate                         : 10 000 kb/s
    Šířka                                    : 1 920pixely
    Výška                                    : 1 080pixely
    Poměr stran                              : 16:9
    Frame rate mode                          : Constant
    Frame rate                               : 23,976 (24000/1001) FPS
    Color space                              : YUV
    Chroma subsampling                       : 4:2:0
    Bit depth                                : 8 bits
    Scan type                                : Progressive
    Bits/(Pixel*Frame)                       : 0.153
    Stream size                              : 3,45 GiB (93%)
    Enkódoval                                : AVC Coding
    Default                                  : Ano
    Forced                                   : Ne
    Color range                              : Limited
    Color primaries                          : BT.709
    Transfer characteristics                 : BT.709
    Matrix coefficients                      : BT.709

    Audio #1
    ID                                       : 2
    Formát                                   : E-AC-3
    Formát/Info                              : Enhanced AC-3
    Commercial name                          : Dolby Digital Plus
    Codec ID                                 : A_EAC3
    Duration                                 : 1 h 4 min
    Bit rate mode                            : Constant
    Bit rate                                 : 192 kb/s
    Kanál(y)                                 : 6 kanály
    Channel layout                           : L R C LFE Ls Rs
    Sampling rate                            : 48,0 kHz
    Frame rate                               : 31,250 FPS (1536 SPF)
    Bit depth                                : 32 bits
    Compression mode                         : Lossy
    Stream size                              : 89,2 MiB (2%)
    Jazyk                                    : English
    Service kind                             : Complete Main
    Default                                  : Ano
    Forced                                   : Ne

    Audio #2
    ID                                       : 3
    Formát                                   : E-AC-3
    Formát/Info                              : Enhanced AC-3
    Commercial name                          : Dolby Digital Plus
    Codec ID                                 : A_EAC3
    Duration                                 : 1 h 4 min
    Bit rate mode                            : Constant
    Bit rate                                 : 192 kb/s
    Kanál(y)                                 : 6 kanály
    Channel layout                           : L R C LFE Ls Rs
    Sampling rate                            : 48,0 kHz
    Frame rate                               : 31,250 FPS (1536 SPF)
    Bit depth                                : 32 bits
    Compression mode                         : Lossy
    Stream size                              : 89,2 MiB (2%)
    Jazyk                                    : Czech
    Service kind                             : Complete Main
    Default                                  : Ne
    Forced                                   : Ne

    Text #1
    ID                                       : 4
    Formát                                   : UTF-8
    Codec ID                                 : S_TEXT/UTF8
    Codec ID/Info                            : UTF-8 Plain Text
    Duration                                 : 40 min 11 s
    Enkódoval                                : Lavc58.91.100 srt
    Jazyk                                    : Czech
    Default                                  : Ne
    Forced                                   : Ne

    Text #2
    ID                                       : 5
    Formát                                   : UTF-8
    Codec ID                                 : S_TEXT/UTF8
    Codec ID/Info                            : UTF-8 Plain Text
    Duration                                 : 1 h 3 min
    Enkódoval                                : Lavc58.91.100 srt
    Jazyk                                    : English
    Default                                  : Ano
    Forced                                   : Ne

    Text #3
    ID                                       : 6
    Formát                                   : UTF-8
    Codec ID                                 : S_TEXT/UTF8
    Codec ID/Info                            : UTF-8 Plain Text
    Duration                                 : 1 h 3 min
    Enkódoval                                : Lavc58.91.100 srt
    Jazyk                                    : Czech
    Default                                  : Ne
    Forced                                   : Ne
















    Geordie, vrtko78, Loffi, Jablonka, MOONSPELL, Ares43, kvetosman, nemesis0709, Charlesp, imanol, Orhea, Kontura, jankoondovcik, Liška4444, 2Dcko, hudrbica,

    + Pridaj vlastnu verziu tohto torrentu +


    Upozornenie:
    Ziadny zo zobrazených súborov sa nenachádza na tomto serveri. Server slúzi len k síreniu vlastnorucne vytvorených aplikácií, videí, hudby ai. Autori stránok nenesú ziadnu zodpovednost za zverejnené odkazy, komentáre a obsah súborov. Vsetky komentáre, odkazy, súbory ktoré by svojou povahou mohli byt v rozpore zo zákonmi sem vkladáte na vlastnú zodpovednost. Autori stránok si vyhradzujú právo cenzúry odkazov, komentárov príp. súborov, ktoré by svojou povahou mohli byt v rozpore zo zákonmi a dobrými mravmi. Dodrzujte pravidlá!





    0
    vargapeter85
    Ratio 0.23

    Clen

    01/07/2022 23.19.37
    aj mne to seka na lg tv

    0
    csmanak
    Ratio 4.86

    Member+

    01/07/2022 19.24.32
    všechny díly od tebe se sekaji jak na tv tak na pc... jen by mě zajimalo jestli jen mě


    --------------
    >> 01/07/2022 19.28.08
    UPLOADER: Nainstaluj si kodeky do PC , jinak přehrávám to na ntb v práci s integrovanou grafikou od amd cca 1gb sdílená paměť a jede to bez sekání , bohužel netuším , ale na TV jdou taky aktualizovat kodeky ... třeba vyzkoušet , držím palce


    --------------
    >> 01/07/2022 20.37.21
    ApoCZ: Vždy bez problémů - PC / VLC player a spokojenost


    --------------
    >> 01/07/2022 22.42.10
    chern: Mám stejný problém na LG tv


    Back

    Na serveru se nenalézají zádne soubory. Za odkazy jsou výhradně zodpovědní uzivatelé a návstěvníci tohoto trackeru. Administrátor není zodpovědný za pridaný obsah ani za skody zpusobené uzivateli. Rozsirovat stránku nebo její obsah bez souhlasu ownera je zakázano. Nesmíte pouzívat tuto webovou stránku pro distribuovaní nebo download zádného materiálu pokud nemáte povolení od príslusného vlastníka práv. Uzivatelé jsou zodpovědní za dodrzování těchto pravidel a podmínek. Owner má právo kdykoliv změnit pravidla tohoto trackeru.

    [ Script trval: 0.030 sec. ] - [ GZIP: enabled ]
    Je zhruba 09:20
    sql

    TOPlist