Tvoj účet nieje VIP.
Preto sú tvoje funkcie a možnosti značne obmedzené.
Pre aktiváciu VIP klikni sem.

Bazanti / Les Bidasses en folie (1971)(CZ) = CSFD 79% | SkTorrent.eu

Cz-SkTorrent open Tracker, na volné zdielanie súborov. Pridajte sa k nasej komunite a získajte pristup k tisícom torrentov.

  • vysoká rýchlost
  • úplne zdarma
  • prevazne Slovenska a Ceska scena
  • ste tu s nami uz 5 rokov - Dakujeme
  • Vitaj Guest (Login) Ako stahovat
    torrenty?
    Torrenty:
    v1 textová
    v2 obrázková
    v3 online filmy
    Ako sa stat
    Uploaderom
    Online
    Filmy
    Forum
    Pravidlá
    BitTorrent
    klient
    Meno: Heslo:
    Zaregistrovat
    Po zaregistrovaní mozte volne stahovat
    Zabudol som heslo

    Torrent's details
    Bazanti / Les Bidasses en folie (1971)(CZ) = CSFD 79% Názov:Bazanti / Les Bidasses en folie (1971)(CZ) = CSFD 79% Hodnocení: Stiahnut
    Pozriet Online
    Kategória:Filmy CZ/SK dabing Velikost:699.8 MB BitTorrent klient
    Pridaný: Súbory:
    Skontrolován:2014-02-03 Peerov:0 (Seed: 0, Leech: 0)
    Zaner:Dobrodruzny,Komedie,Valecny Uploader:Uvidis, az ked budes
    VIP
    Kúp nám Pivo 1,10€

    Kúp nám Pivo
    Podporte nas na Facebooku !
    Pridaj do zalozky
    Pridaj do zalozky




    Jazyk: Cesky
    Titulky: Ne.
    Rok vydani: 1971
    Delka: 85 minut
    Zanr: Dobrodružný / Válečný / Komedie
    Odkaz: http://www.csfd.cz/film/33276-bazanti/

    Obrazek

    MediaInfo:
    General
    Complete name                            : Z:\4. Francouzske filmy 106 GB\Bazanti\Bažanti(1971).avi
    Format                                   : AVI
    Format/Info                              : Audio Video Interleave
    File size                                : 700 MiB
    Duration                                 : 1h 20mn
    Overall bit rate mode                    : Variable
    Overall bit rate                         : 1 217 Kbps
    Writing application                      : VirtualDubMod 1.5.10.1 (build 2439/release)
    Writing library                          : VirtualDubMod build 2439/release

    Video
    ID                                       : 0
    Format                                   : MPEG-4 Visual
    Format profile                           : Advanced Simple@L5
    Format settings, BVOP                    : 2
    Format settings, QPel                    : No
    Format settings, GMC                     : No warppoints
    Format settings, Matrix                  : Default (H.263)
    Muxing mode                              : Packed bitstream
    Codec ID                                 : XVID
    Codec ID/Hint                            : XviD
    Duration                                 : 1h 20mn
    Bit rate                                 : 1 100 Kbps
    Width                                    : 576 pixels
    Height                                   : 336 pixels
    Display aspect ratio                     : 1.714
    Frame rate                               : 25.000 fps
    Color space                              : YUV
    Chroma subsampling                       : 4:2:0
    Bit depth                                : 8 bits
    Scan type                                : Progressive
    Compression mode                         : Lossy
    Bits/(Pixel*Frame)                       : 0.227
    Stream size                              : 632 MiB (90%)
    Writing library                          : XviD 1.0.2 (UTC 2004-08-29)

    Audio
    ID                                       : 1
    Format                                   : MPEG Audio
    Format version                           : Version 1
    Format profile                           : Layer 3
    Mode                                     : Joint stereo
    Codec ID                                 : 55
    Codec ID/Hint                            : MP3
    Duration                                 : 1h 20mn
    Bit rate mode                            : Variable
    Bit rate                                 : 104 Kbps
    Nominal bit rate                         : 128 Kbps
    Channel(s)                               : 2 channels
    Sampling rate                            : 48.0 KHz
    Compression mode                         : Lossy
    Stream size                              : 60.0 MiB (9%)
    Alignment                                : Aligned on interleaves
    Interleave, duration                     : 24 ms (0.60 video frame)
    Interleave, preload duration             : 374 ms
    Writing library                          : LAME3.90.
    Encoding settings                        : -m j -V 0 -q 5 -lowpass 15.3 --abr 128


    Popis:
    První z dlouhé řady filmů se skupinou bývalých hudebníků Les Charlots, poz-ději velmi populárních nejen doma, ale i za hranicemi Francie. Bláznivý příběh party mladíků, zakládajících rockovou skupinu, jejíž slibně se rozvíjející kariéru přeruší povolávací rozkazy pro její členy. Ocitají se před branami kasáren a tam začíná jejich vojenské dobrodružství.





    + Pridaj vlastnu verziu tohto torrentu +


    Upozornenie:
    Ziadny zo zobrazených súborov sa nenachádza na tomto serveri. Server slúzi len k síreniu vlastnorucne vytvorených aplikácií, videí, hudby ai. Autori stránok nenesú ziadnu zodpovednost za zverejnené odkazy, komentáre a obsah súborov. Vsetky komentáre, odkazy, súbory ktoré by svojou povahou mohli byt v rozpore zo zákonmi sem vkladáte na vlastnú zodpovednost. Autori stránok si vyhradzujú právo cenzúry odkazov, komentárov príp. súborov, ktoré by svojou povahou mohli byt v rozpore zo zákonmi a dobrými mravmi. Dodrzujte pravidlá!


    No comments...


    Back

    Na serveru se nenalézají zádne soubory. Za odkazy jsou výhradně zodpovědní uzivatelé a návstěvníci tohoto trackeru. Administrátor není zodpovědný za pridaný obsah ani za skody zpusobené uzivateli. Rozsirovat stránku nebo její obsah bez souhlasu ownera je zakázano. Nesmíte pouzívat tuto webovou stránku pro distribuovaní nebo download zádného materiálu pokud nemáte povolení od príslusného vlastníka práv. Uzivatelé jsou zodpovědní za dodrzování těchto pravidel a podmínek. Owner má právo kdykoliv změnit pravidla tohoto trackeru.

    [ Script trval: 0.025 sec. ] - [ GZIP: enabled ]
    BtiTracker (1.4.8) by Btiteam
    Je zhruba 09:26

    TOPlist