Tvoj účet nieje VIP.
Preto sú tvoje funkcie a možnosti značne obmedzené.
Pre aktiváciu VIP klikni sem.

Big Tits School - Nicole Aniston, Riley Reid | SkTorrent.eu

Cz-SkTorrent open Tracker, na volné zdielanie súborov. Pridajte sa k nasej komunite a získajte pristup k tisícom torrentov.

  • vysoká rýchlost
  • úplne zdarma
  • prevazne Slovenska a Ceska scena
  • ste tu s nami uz 5 rokov - Dakujeme
  • Vitaj Guest (Login) Ako stahovat
    torrenty?
    Torrenty:
    v1 textová
    v2 obrázková
    v3 online filmy
    Ako sa stat
    Uploaderom
    Online
    Filmy
    Forum
    Pravidlá
    BitTorrent
    klient
    Meno: Heslo:
    Zaregistrovat
    Po zaregistrovaní mozte volne stahovat
    Zabudol som heslo

    Torrent's details
    Big Tits School - Nicole Aniston, Riley Reid Názov:Big Tits School - Nicole Aniston, Riley Reid Hodnocení: Stiahnut
    Pozriet Online
    Kategória:xXx Velikost:556.3 MB BitTorrent klient
    Pridaný: Súbory:
    Skontrolován:2020-10-14 Peerov:23 (Seed: 23, Leech: 0)
    Zaner: Uploader:Uvidis, az ked budes
    VIP
    Kúp nám Pivo 1,10€

    Kúp nám Pivo
    Podporte nas na Facebooku !
    Pridaj do zalozky
    Pridaj do zalozky



    XXX Big Tits School - Nicole Aniston, Riley Reid







    General
    Complete name                            : I:\®ivotopisy\[BigTitsAtSchool] Nicole Aniston, Riley Reid - Porn Logic 2 (01.04.2018) rq.mp4
    Format                                   : MPEG-4
    Format profile                           : Base Media
    Codec ID                                 : isom (isom/iso2/avc1/mp41)
    File size                                : 556 MiB
    Duration                                 : 44 min 10 s
    Overall bit rate                         : 1 760 kb/s
    Writing application                      : Lavf57.83.100

    Video
    ID                                       : 1
    Format                                   : AVC
    Format/Info                              : Advanced Video Codec
    Format profile                           : High@L3.1
    Format settings                          : CABAC / 5 Ref Frames
    Format settings, CABAC                   : Yes
    Format settings, ReFrames                : 5 frames
    Codec ID                                 : avc1
    Codec ID/Info                            : Advanced Video Coding
    Duration                                 : 44 min 10 s
    Bit rate                                 : 1 615 kb/s
    Width                                    : 854 pixels
    Height                                   : 480 pixels
    Display aspect ratio                     : 16:9
    Original display aspect ratio            : 16:9
    Frame rate mode                          : Constant
    Frame rate                               : 23.976 (24000/1001) FPS
    Color space                              : YUV
    Chroma subsampling                       : 4:2:0
    Bit depth                                : 8 bits
    Scan type                                : Progressive
    Bits/(Pixel*Frame)                       : 0.164
    Stream size                              : 510 MiB (92%)
    Writing library                          : x264 core 148

    Codec configuration box                  : avcC

    Audio
    ID                                       : 2
    Format                                   : AAC LC
    Format/Info                              : Advanced Audio Codec Low Complexity
    Codec ID                                 : mp4a-40-2
    Duration                                 : 44 min 10 s
    Duration_LastFrame                       : -19 ms
    Bit rate mode                            : Constant
    Bit rate                                 : 140 kb/s
    Channel(s)                               : 2 channels
    Channel layout                           : L R
    Sampling rate                            : 48.0 kHz
    Frame rate                               : 46.875 FPS (1024 SPF)
    Compression mode                         : Lossy
    Stream size                              : 44.1 MiB (8%)
    Default                                  : Yes
    Alternate group                          : 1








    ferik14, archibald33, Pavelkosutka, Bin40, KULADA, Mirec83, jimpo,

    + Pridaj vlastnu verziu tohto torrentu +


    Upozornenie:
    Ziadny zo zobrazených súborov sa nenachádza na tomto serveri. Server slúzi len k síreniu vlastnorucne vytvorených aplikácií, videí, hudby ai. Autori stránok nenesú ziadnu zodpovednost za zverejnené odkazy, komentáre a obsah súborov. Vsetky komentáre, odkazy, súbory ktoré by svojou povahou mohli byt v rozpore zo zákonmi sem vkladáte na vlastnú zodpovednost. Autori stránok si vyhradzujú právo cenzúry odkazov, komentárov príp. súborov, ktoré by svojou povahou mohli byt v rozpore zo zákonmi a dobrými mravmi. Dodrzujte pravidlá!


    No comments...


    Back

    Na serveru se nenalézají zádne soubory. Za odkazy jsou výhradně zodpovědní uzivatelé a návstěvníci tohoto trackeru. Administrátor není zodpovědný za pridaný obsah ani za skody zpusobené uzivateli. Rozsirovat stránku nebo její obsah bez souhlasu ownera je zakázano. Nesmíte pouzívat tuto webovou stránku pro distribuovaní nebo download zádného materiálu pokud nemáte povolení od príslusného vlastníka práv. Uzivatelé jsou zodpovědní za dodrzování těchto pravidel a podmínek. Owner má právo kdykoliv změnit pravidla tohoto trackeru.

    [ Script trval: 0.149 sec. ] - [ GZIP: enabled ]
    BtiTracker (1.4.8) by Btiteam
    Je zhruba 00:58

    TOPlist