Tvoj účet nieje VIP.
Preto sú tvoje funkcie a možnosti značne obmedzené.
Pre aktiváciu VIP klikni sem.

Black Widow (2021)(CZ/EN)(2160p 4K BRRip) = CSFD 64% | SkTorrent.eu

Cz-SkTorrent open Tracker, na volné zdielanie súborov. Pridajte sa k nasej komunite a získajte pristup k tisícom torrentov.

  • vysoká rýchlost
  • úplne zdarma
  • prevazne Slovenska a Ceska scena
  • ste tu s nami uz 5 rokov - Dakujeme
  • Vitaj Guest (Login) Ako stahovat
    torrenty?
    Torrenty:
    v1 textová
    v2 obrázková
    v3 online filmy
    Ako sa stat
    Uploaderom
    Online
    Filmy
    Forum
    Pravidlá
    BitTorrent
    klient
    Meno: Heslo:
    Zaregistrovat
    Po zaregistrovaní mozte volne stahovat
    Zabudol som heslo

    Torrent's details
    Black Widow (2021)(CZ/EN)(2160p 4K BRRip) = CSFD 64% Názov:Black Widow (2021)(CZ/EN)(2160p 4K BRRip) = CSFD 64% Hodnocení: Stiahnut
    Pozriet Online
    Kategória:UHD Filmy Velikost:26.6 GB BitTorrent klient
    Pridaný: Súbory:
    Skontrolován:2021-09-11 Peerov:84 (Seed: 84, Leech: 0)
    Zaner:Akcni,Dobrodruzny,Sci-Fi Uploader:Uvidis, az ked budes
    VIP
    Kúp nám Pivo 1,10€

    Kúp nám Pivo
    Podporte nas na Facebooku !
    Pridaj do zalozky
    Pridaj do zalozky






    Black Widow

    (2021)(CZ/EN) = CSFD 64%

    2160p 4K - HEVC – 28.5 Mb/s Bitrate verzia







    Video: 2160p 4K SDR - HEVC
    Jazyk: CZ 5.1 DD / EN 7.1 DTS / EN 5.1 DTS
    Titulky: CZ Forced / EN
    Akcni / Dobrodruzny / Sci-Fi
    USA  2021
    133 min

    PRODUKCE & HERCI

    Režie: Cate Shortland
    Předloha: Stan Lee (komiks), Don Heck (komiks), Don Rico (komiks)
    Scénář: Eric Pearson
    Kamera: Gabriel Beristain
    Hudba: Lorne Balfe
    Hrají: (Scarlett Johansson - ), Florence Pugh, David Harbour, Rachel Weisz, Ray Winstone, Ever Anderson, Violet McGraw, O.T. Fagbenle, William Hurt, Olga Kurylenko, Julia Louis-Dreyfus, Ryan Kiera Armstrong, Liani Samuel, Michelle Lee, C.C. Smiff, Nanna Blondell, Yolanda Lynes, Jade Ma, Jade Xu, Enikő Fülöp, Georgia Curtis, Ione Butler, Kurt Yue, Marcel Dorian, Olivier Richters, Andrew Byron, Robert Pralgo, Jose Miguel Vasquez, Aria Brooks

    OBSAH

    (Scarlett Johansson - ) alias Black Widow se po dekádě v Marvel Cinematic Universe konečně dočkala svého prvního sólového dobrodružství, které však bude úplně jiné, než jaké doposud poznala. Skupina velmi nebezpečných lidí odhalila její už téměř zapomenutou minulost, a proto se musí vydat na cestu napříč celým světem, zatímco je pronásledována Taskmasterem – neúprosným zabijákem, jehož jediný úkol je zničit Black Widow.

    SCREEN



    TRAILER





    Hlavní
    Formát : Matroska
    Format version : Version 4
    Velikost souboru : 26,6 GiB
    Duration : 2 h 13 min
    Overall bit rate mode : Variable
    Celkový BitRate : 28,5 Mb/s
    Encoded date : UTC 2021-09-11 00:13:50
    Použitý software : mkvmerge v60.0.0 ('Are We Copies?') 64-bit
    Enkódoval : libebml v1.4.2 + libmatroska v1.6.4

    Video
    ID : 1
    Formát : HEVC
    Formát/Info : High Efficiency Video Coding
    Format profile : Main 10@L5.1@High
    Codec ID : V_MPEGH/ISO/HEVC
    Duration : 2 h 13 min
    Bit rate : 23,0 Mb/s
    Šířka : 3 840pixely
    Výška : 1 608pixely
    Poměr stran : 2,40:1
    Frame rate mode : Constant
    Frame rate : 23,976 (24000/1001) FPS
    Color space : YUV
    Chroma subsampling : 4:2:0
    Bit depth : 10 bits
    Bits/(Pixel*Frame) : 0.155
    Stream size : 21,5 GiB (81%)
    Enkódoval : x265 3.0+1-ed72af837053:[Windows][GCC 8.2.0][64 bit] 10bit
    Default : Ano
    Forced : Ne

    Audio #1
    ID : 2
    Formát : DTS XLL
    Formát/Info : Digital Theater Systems
    Commercial name : DTS-HD Master Audio
    Codec ID : A_DTS
    Duration : 2 h 13 min
    Bit rate mode : Variable
    Bit rate : 4 412 kb/s
    Kanál(y) : 8 kanály
    Channel layout : C L R LFE Lb Rb Lss Rss
    Sampling rate : 48,0 kHz
    Frame rate : 93,750 FPS (512 SPF)
    Bit depth : 24 bits
    Compression mode : Lossless
    Stream size : 4,12 GiB (15%)
    Jazyk : English
    Default : Ne
    Forced : Ne

    Audio #2
    ID : 3
    ID in the original source medium : 4352 (0x1100)
    Formát : AC-3
    Formát/Info : Audio Coding 3
    Commercial name : Dolby Digital
    Codec ID : A_AC3
    Duration : 2 h 13 min
    Bit rate mode : Constant
    Bit rate : 640 kb/s
    Kanál(y) : 6 kanály
    Channel layout : L R C LFE Ls Rs
    Sampling rate : 48,0 kHz
    Frame rate : 31,250 FPS (1536 SPF)
    Compression mode : Lossy
    Stream size : 612 MiB (2%)
    Jazyk : English
    Service kind : Complete Main
    Default : Ne
    Forced : Ne
    Original source medium : Blu-ray

    Audio #3
    ID : 4
    Formát : AC-3
    Formát/Info : Audio Coding 3
    Commercial name : Dolby Digital
    Codec ID : A_AC3
    Duration : 2 h 13 min
    Bit rate mode : Constant
    Bit rate : 448 kb/s
    Kanál(y) : 6 kanály
    Channel layout : L R C LFE Ls Rs
    Sampling rate : 48,0 kHz
    Frame rate : 31,250 FPS (1536 SPF)
    Compression mode : Lossy
    Stream size : 429 MiB (2%)
    Jazyk : Czech
    Service kind : Complete Main
    Default : Ano
    Forced : Ano

    Text #1
    ID : 5
    Formát : UTF-8
    Codec ID : S_TEXT/UTF8
    Codec ID/Info : UTF-8 Plain Text
    Duration : 2 h 12 min
    Bit rate : 40 b/s
    Count of elements : 1339
    Stream size : 39,7 KiB (0%)
    Jazyk : English
    Default : Ano
    Forced : Ne

    Text #2
    ID : 6
    Formát : UTF-8
    Codec ID : S_TEXT/UTF8
    Codec ID/Info : UTF-8 Plain Text
    Duration : 2 h 1 min
    Bit rate : 1 b/s
    Count of elements : 53
    Stream size : 1,14 KiB (0%)
    Jazyk : Czech
    Default : Ano
    Forced : Ano

    Menu
    00:00:00.000 : Chapter 01
    00:04:55.169 : Chapter 02
    00:13:10.080 : Chapter 03
    00:16:24.566 : Chapter 04
    00:18:41.870 : Chapter 05
    00:21:41.633 : Chapter 06
    00:25:40.747 : Chapter 07
    00:30:06.346 : Chapter 08
    00:39:05.301 : Chapter 09
    00:44:46.058 : Chapter 10
    00:53:25.994 : Chapter 11
    01:01:38.152 : Chapter 12
    01:07:46.270 : Chapter 13
    01:11:40.629 : Chapter 14
    01:17:48.747 : Chapter 15
    01:27:19.192 : Chapter 16
    01:33:33.441 : Chapter 17
    01:37:37.476 : Chapter 18
    01:41:18.655 : Chapter 19
    01:45:37.539 : Chapter 20
    01:51:41.653 : Chapter 21
    01:57:09.105 : Chapter 22
    02:01:59.562 : Chapter 23
    02:04:25.458 : Chapter 24







    VDAKA ZA BODY a SEEDUJTE






    ONLINE

    CZ dabing






    CZ tutilky









    pepa49, Ram, CarolinaReaper, pretorian_pp, Snake2002, Cucak, kanar9999, Jooozef, NarTonR, Steve_Rogers, maysa33, EDONIS666, mantis7, Burak555, balu1991, lubomirhruska, lalik,

    + Pridaj vlastnu verziu tohto torrentu +


    Upozornenie:
    Ziadny zo zobrazených súborov sa nenachádza na tomto serveri. Server slúzi len k síreniu vlastnorucne vytvorených aplikácií, videí, hudby ai. Autori stránok nenesú ziadnu zodpovednost za zverejnené odkazy, komentáre a obsah súborov. Vsetky komentáre, odkazy, súbory ktoré by svojou povahou mohli byt v rozpore zo zákonmi sem vkladáte na vlastnú zodpovednost. Autori stránok si vyhradzujú právo cenzúry odkazov, komentárov príp. súborov, ktoré by svojou povahou mohli byt v rozpore zo zákonmi a dobrými mravmi. Dodrzujte pravidlá!




    Uploader
    11/09/2021 20.48.59
    ak by chcel niekto chytracit ohladom kvality zvuku, tak je to momentalne to najlepsie co je v obehu! Dakujem za body


    --------------
    >> 13/09/2021 21.13.35
    maco54: A aký problém je zo zvukom ?


    --------------
    >> 13/09/2021 22.56.23
    UPLOADER: CZ stopa je len 448 kb/s a nie 640 kb/s.
    V preklade, nic si nevsimnes, len su obcas chytraci co potrebuju komentovat vsetko namiesto toho aby sa podakovali....

    1
    Ram
    Ratio 49.92

    VIP

    11/09/2021 08.39.05
    pěkný torrent upe klobouk dolu


    --------------
    >> 11/09/2021 08.42.40
    UPLOADER: vdaka ti kolega


    Back

    Na serveru se nenalézají zádne soubory. Za odkazy jsou výhradně zodpovědní uzivatelé a návstěvníci tohoto trackeru. Administrátor není zodpovědný za pridaný obsah ani za skody zpusobené uzivateli. Rozsirovat stránku nebo její obsah bez souhlasu ownera je zakázano. Nesmíte pouzívat tuto webovou stránku pro distribuovaní nebo download zádného materiálu pokud nemáte povolení od príslusného vlastníka práv. Uzivatelé jsou zodpovědní za dodrzování těchto pravidel a podmínek. Owner má právo kdykoliv změnit pravidla tohoto trackeru.

    [ Script trval: 0.022 sec. ] - [ GZIP: enabled ]
    Je zhruba 22:08
    neviem

    TOPlist