Tvoj účet nieje VIP.
Preto sú tvoje funkcie a možnosti značne obmedzené.
Pre aktiváciu VIP klikni sem.

Black Widow (CZ/SK/EN)(2021)(1080p-HEVC)(Web-DL) = CSFD 62% | SkTorrent.eu

Cz-SkTorrent open Tracker, na volné zdielanie súborov. Pridajte sa k nasej komunite a získajte pristup k tisícom torrentov.

  • vysoká rýchlost
  • úplne zdarma
  • prevazne Slovenska a Ceska scena
  • ste tu s nami uz 5 rokov - Dakujeme
  • Vitaj Guest (Login) Ako stahovat
    torrenty?
    Torrenty:
    v1 textová
    v2 obrázková
    v3 online filmy
    Ako sa stat
    Uploaderom
    Online
    Filmy
    Forum
    Pravidlá
    BitTorrent
    klient
    Meno: Heslo:
    Zaregistrovat
    Po zaregistrovaní mozte volne stahovat
    Zabudol som heslo

    Torrent's details
    Black Widow (CZ/SK/EN)(2021)(1080p-HEVC)(Web-DL) = CSFD 62% Názov:Black Widow (CZ/SK/EN)(2021)(1080p-HEVC)(Web-DL) = CSFD 62% Hodnocení:N/A Stiahnut
    Pozriet Online
    Kategória:HD Filmy Velikost:3.3 GB BitTorrent klient
    Pridaný: Súbory:
    Skontrolován:2022-06-21 Peerov:42 (Seed: 42, Leech: 0)
    Zaner:Akcni,Dobrodruzny,Sci-Fi Uploader:Uvidis, az ked budes
    VIP
    Kúp nám Pivo 1,10€

    Kúp nám Pivo
    Podporte nas na Facebooku !
    Pridaj do zalozky
    Pridaj do zalozky











    Akční / Dobrodružný / Sci-Fi
    USA, 2021, 134 min


    Video: 1080p MKV HEVC
    Audio : CZ/SK/EN Dabing - AC-3 5.1- 256 kb/s
    Titulky : CZ/SK/EN

    Režie: Cate Shortland
    Předloha: Stan Lee (komiks), Don Heck (komiks), Don Rico (komiks)
    Scénář: Eric Pearson
    Kamera: Gabriel Beristain
    Hudba: Lorne Balfe
    Hrají: (Scarlett Johansson - ), Florence Pugh, David Harbour, Rachel Weisz, Ray Winstone, Ever Anderson, Violet McGraw, O.T. Fagbenle, William Hurt,
    Produkce: Kevin Feige
    Střih: Leigh Folsom Boyd, Matthew Schmidt
    Zvuk: Juan Peralta
    Scénografie: Charles Wood, Clint Wallace, Connery Davoodian
    Masky: Luca Major, Brigitta Mogony, Paul Gooch
    Kostýmy: Jany Temime

    Náhled








    (Scarlett Johansson - ) alias Black Widow se po dekádě v Marvel Cinematic Universe konečně dočkala svého prvního sólového dobrodružství, které však bude úplně jiné, než jaké doposud poznala. Skupina velmi nebezpečných lidí odhalila její už téměř zapomenutou minulost, a proto se musí vydat na cestu napříč celým světem, zatímco je pronásledována Taskmasterem – neúprosným zabijákem, jehož jediný úkol je zničit Black Widow. (Falcon)



    Formát                                   : Matroska
    Format version                           : Version 4
    Velikost souboru                         : 3,33 GiB
    Duration                                 : 2 h 13 min
    Celkový BitRate                          : 3 560 kb/s
    Název filmu                              : Black Widow
    Description                              : V akcí nabitém špionážním thrilleru „Black Widow“ od Studia Marvel bojuje Nataša Romanovová alias Black Widow proti proradnému spiknutí, jež má kořeny v její vlastní temné minulosti. Pronásledována strašlivým nepřítelem, který se před ničím nezastaví, se musí Nataša vypořádat se svou minulostí špionky a obnovit pouta, která zpřetrhala dávno předtím, než se stala členkou Avengers. /  / Pořad obsahuje scény, které mohou u osob citlivých na světlo vyvolat reakci.
    Encoded date                             : UTC 2022-06-20 22:41:13
    Použitý software                         : HandBrake 1.5.1 2022011000
    Enkódoval                                : Lavf58.76.100
    ErrorDetectionType                       : Per level 1
    ARTIST                                   : (Scarlett Johansson - ),Florence Pugh,David Harbour,O-T Fagbenle,Olga Kurylenko,William Hurt

    Video
    ID                                       : 1
    Formát                                   : HEVC
    Formát/Info                              : High Efficiency Video Coding
    Format profile                           : Main@L4@Main
    Codec ID                                 : V_MPEGH/ISO/HEVC
    Duration                                 : 2 h 13 min
    Bit rate                                 : 2 721 kb/s
    Šířka                                    : 1 920pixely
    Výška                                    : 1 080pixely
    Poměr stran                              : 2,40:1
    Frame rate mode                          : Constant
    Frame rate                               : 23,976 (24000/1001) FPS
    Color space                              : YUV
    Chroma subsampling                       : 4:2:0
    Bit depth                                : 8 bits
    Bits/(Pixel*Frame)                       : 0.055
    Stream size                              : 2,54 GiB (76%)
    Default                                  : Ano
    Forced                                   : Ne
    Color range                              : Limited
    Color primaries                          : BT.709
    Transfer characteristics                 : BT.709
    Matrix coefficients                      : BT.709

    Audio #1
    ID                                       : 2
    Formát                                   : E-AC-3
    Formát/Info                              : Enhanced AC-3
    Commercial name                          : Dolby Digital Plus
    Codec ID                                 : A_EAC3
    Duration                                 : 2 h 13 min
    Bit rate mode                            : Constant
    Bit rate                                 : 256 kb/s
    Kanál(y)                                 : 6 kanály
    Channel layout                           : L R C LFE Ls Rs
    Sampling rate                            : 48,0 kHz
    Frame rate                               : 31,250 FPS (1536 SPF)
    Compression mode                         : Lossy
    Stream size                              : 245 MiB (7%)
    Titul                                    : Čeština
    Jazyk                                    : Czech
    Service kind                             : Complete Main
    Default                                  : Ano
    Forced                                   : Ne

    Audio #2
    ID                                       : 3
    Formát                                   : E-AC-3
    Formát/Info                              : Enhanced AC-3
    Commercial name                          : Dolby Digital Plus
    Codec ID                                 : A_EAC3
    Duration                                 : 2 h 13 min
    Bit rate mode                            : Constant
    Bit rate                                 : 256 kb/s
    Kanál(y)                                 : 6 kanály
    Channel layout                           : L R C LFE Ls Rs
    Sampling rate                            : 48,0 kHz
    Frame rate                               : 31,250 FPS (1536 SPF)
    Compression mode                         : Lossy
    Stream size                              : 245 MiB (7%)
    Titul                                    : Slovenčina
    Jazyk                                    : Slovak
    Service kind                             : Complete Main
    Default                                  : Ne
    Forced                                   : Ne

    Audio #3
    ID                                       : 4
    Formát                                   : E-AC-3
    Formát/Info                              : Enhanced AC-3
    Commercial name                          : Dolby Digital Plus
    Codec ID                                 : A_EAC3
    Duration                                 : 2 h 13 min
    Bit rate mode                            : Constant
    Bit rate                                 : 256 kb/s
    Kanál(y)                                 : 6 kanály
    Channel layout                           : L R C LFE Ls Rs
    Sampling rate                            : 48,0 kHz
    Frame rate                               : 31,250 FPS (1536 SPF)
    Compression mode                         : Lossy
    Stream size                              : 245 MiB (7%)
    Titul                                    : English
    Jazyk                                    : English
    Service kind                             : Complete Main
    Default                                  : Ne
    Forced                                   : Ne

    Text #1
    ID                                       : 5
    Formát                                   : ASS
    Codec ID                                 : S_TEXT/ASS
    Codec ID/Info                            : Advanced Sub Station Alpha
    Duration                                 : 2 h 13 min
    Compression mode                         : Lossless
    Titul                                    : Čeština
    Jazyk                                    : Czech
    Default                                  : Ne
    Forced                                   : Ne

    Text #2
    ID                                       : 6
    Formát                                   : ASS
    Codec ID                                 : S_TEXT/ASS
    Codec ID/Info                            : Advanced Sub Station Alpha
    Duration                                 : 2 h 13 min
    Compression mode                         : Lossless
    Titul                                    : Slovenčina
    Jazyk                                    : Slovak
    Default                                  : Ne
    Forced                                   : Ne

    Text #3
    ID                                       : 7
    Formát                                   : ASS
    Codec ID                                 : S_TEXT/ASS
    Codec ID/Info                            : Advanced Sub Station Alpha
    Duration                                 : 2 h 13 min
    Compression mode                         : Lossless
    Titul                                    : English [CC]
    Jazyk                                    : English
    Default                                  : Ne
    Forced                                   : Ne








    ONLINE

    CZ dabing






    CZ tutilky









    bodrobodro, MartinZetek, jirkacbx, jirkacbx, mumukuBuco1, BrabaCZE,

    + Pridaj vlastnu verziu tohto torrentu +


    Upozornenie:
    Ziadny zo zobrazených súborov sa nenachádza na tomto serveri. Server slúzi len k síreniu vlastnorucne vytvorených aplikácií, videí, hudby ai. Autori stránok nenesú ziadnu zodpovednost za zverejnené odkazy, komentáre a obsah súborov. Vsetky komentáre, odkazy, súbory ktoré by svojou povahou mohli byt v rozpore zo zákonmi sem vkladáte na vlastnú zodpovednost. Autori stránok si vyhradzujú právo cenzúry odkazov, komentárov príp. súborov, ktoré by svojou povahou mohli byt v rozpore zo zákonmi a dobrými mravmi. Dodrzujte pravidlá!


    No comments...


    Back

    Na serveru se nenalézají zádne soubory. Za odkazy jsou výhradně zodpovědní uzivatelé a návstěvníci tohoto trackeru. Administrátor není zodpovědný za pridaný obsah ani za skody zpusobené uzivateli. Rozsirovat stránku nebo její obsah bez souhlasu ownera je zakázano. Nesmíte pouzívat tuto webovou stránku pro distribuovaní nebo download zádného materiálu pokud nemáte povolení od príslusného vlastníka práv. Uzivatelé jsou zodpovědní za dodrzování těchto pravidel a podmínek. Owner má právo kdykoliv změnit pravidla tohoto trackeru.

    [ Script trval: 0.029 sec. ] - [ GZIP: enabled ]
    Je zhruba 01:43
    memcache

    TOPlist