Tvoj účet nieje VIP.
Preto sú tvoje funkcie a možnosti značne obmedzené.
Pre aktiváciu VIP klikni sem.

Blacked - Addie Andrews 720p | SkTorrent.eu

Cz-SkTorrent open Tracker, na volné zdielanie súborov. Pridajte sa k nasej komunite a získajte pristup k tisícom torrentov.

  • vysoká rýchlost
  • úplne zdarma
  • prevazne Slovenska a Ceska scena
  • ste tu s nami uz 5 rokov - Dakujeme
  • Vitaj Guest (Login) Ako stahovat
    torrenty?
    Torrenty:
    v1 textová
    v2 obrázková
    v3 online filmy
    Ako sa stat
    Uploaderom
    Online
    Filmy
    Forum
    Pravidlá
    BitTorrent
    klient
    pruzinky
    Meno: Heslo:
    Zaregistrovat
    Po zaregistrovaní mozte volne stahovat
    Zabudol som heslo

    Torrent's details
    Blacked - Addie Andrews 720p Názov:Blacked - Addie Andrews 720p Hodnocení: Stiahnut
    Pozriet Online
    Kategória:xXx Velikost:710.7 MB BitTorrent klient
    Pridaný: Súbory:
    Skontrolován:2020-05-22 Peerov:3 (Seed: 3, Leech: 0)
    Zaner: Uploader:Uvidis, az ked budes
    VIP
    Kúp nám Pivo 1,10€

    Kúp nám Pivo
    Podporte nas na Facebooku !
    Pridaj do zalozky
    Pridaj do zalozky






    Popis
    Blacked - Addie Andrews ⭐ 720p HD ⭐ XXX H264-SexG


    Dĺžka : 0 hod  42 min  33 sek
    Formát : MKV, Matroska Video File
    Kategória : XXX 18+







    Unique ID                                : 226939607913093942753518923004786776070 (0xAABAFA887610F95D5B3FAE0868FC1806)
    Celý název a cesta                       : ... Blacked - Addie Andrews [720p HD].mkv
    Formát                                   : Matroska
    Format version                           : Version 4
    Velikost souboru                         : 711 MiB
    Duration                                 : 42 min 33 s
    Celkový BitRate                          : 2 335 kb/s
    Encoded date                             : UTC 2020-05-22 08:15:50
    Použitý software                         : mkvmerge v46.0.0 (' No Deeper Escape' ) 64-bit
    Enkódoval                                : libebml v1.3.10 + libmatroska v1.5.2 / Lavf58.43.100
    Obal                                     : Yes
    Attachments                              : Cover.jpg
    RLS                                      : SexG ⭐ Downloaded to www.hd-cztorrent.cz

    Video
    ID                                       : 1
    Formát                                   : AVC
    Formát/Info                              : Advanced Video Codec
    Format profile                           : High@L3.1
    Format settings                          : CABAC / 1 Ref Frames
    Format settings, CABAC                   : Ano
    Format settings, Reference frames        : 1 frame
    Format settings, GOP                     : M=1, N=24
    Codec ID                                 : V_MPEG4/ISO/AVC
    Duration                                 : 42 min 33 s
    Bit rate mode                            : Constant
    Bit rate                                 : 2 210 kb/s
    Šířka                                    : 1 280pixely
    Výška                                    : 720pixely
    Poměr stran                              : 16:9
    Frame rate mode                          : Constant
    Frame rate                               : 23,976 (24000/1001) FPS
    Color space                              : YUV
    Chroma subsampling                       : 4:2:0
    Bit depth                                : 8 bits
    Scan type                                : Progressive
    Bits/(Pixel*Frame)                       : 0.100
    Stream size                              : 671 MiB (94%)
    Titul                                    : H264 1280x720 16:9
    Jazyk                                    : English
    Default                                  : Ano
    Forced                                   : Ne
    Color range                              : Limited
    Color primaries                          : BT.709
    Transfer characteristics                 : BT.709
    Matrix coefficients                      : BT.709

    Audio
    ID                                       : 2
    Formát                                   : AAC LC
    Formát/Info                              : Advanced Audio Codec Low Complexity
    Codec ID                                 : A_AAC-2
    Duration                                 : 42 min 33 s
    Bit rate                                 : 128 kb/s
    Kanál(y)                                 : 2 kanály
    Channel layout                           : L R
    Sampling rate                            : 48,0 kHz
    Frame rate                               : 46,875 FPS (1024 SPF)
    Compression mode                         : Lossy
    Stream size                              : 39,1 MiB (6%)
    Titul                                    : AAC LC 48000Hz 2Ch.
    Jazyk                                    : English
    Default                                  : Ano
    Forced                                   : Ne

       










    + Pridaj vlastnu verziu tohto torrentu +


    Upozornenie:
    Ziadny zo zobrazených súborov sa nenachádza na tomto serveri. Server slúzi len k síreniu vlastnorucne vytvorených aplikácií, videí, hudby ai. Autori stránok nenesú ziadnu zodpovednost za zverejnené odkazy, komentáre a obsah súborov. Vsetky komentáre, odkazy, súbory ktoré by svojou povahou mohli byt v rozpore zo zákonmi sem vkladáte na vlastnú zodpovednost. Autori stránok si vyhradzujú právo cenzúry odkazov, komentárov príp. súborov, ktoré by svojou povahou mohli byt v rozpore zo zákonmi a dobrými mravmi. Dodrzujte pravidlá!


    No comments...


    Back

    Na serveru se nenalézají zádne soubory. Za odkazy jsou výhradně zodpovědní uzivatelé a návstěvníci tohoto trackeru. Administrátor není zodpovědný za pridaný obsah ani za skody zpusobené uzivateli. Rozsirovat stránku nebo její obsah bez souhlasu ownera je zakázano. Nesmíte pouzívat tuto webovou stránku pro distribuovaní nebo download zádného materiálu pokud nemáte povolení od príslusného vlastníka práv. Uzivatelé jsou zodpovědní za dodrzování těchto pravidel a podmínek. Owner má právo kdykoliv změnit pravidla tohoto trackeru.

    [ Script trval: 0.024 sec. ] - [ GZIP: enabled ]
    BtiTracker (1.4.8) by Btiteam
    Je zhruba 20:45

    TOPlist