Tvoj účet nieje VIP.
Preto sú tvoje funkcie a možnosti značne obmedzené.
Pre aktiváciu VIP klikni sem.

Blade Runner (1982)(CZ/EN)(2160p 4K BRRip) = CSFD 77% | SkTorrent.eu

Cz-SkTorrent open Tracker, na volné zdielanie súborov. Pridajte sa k nasej komunite a získajte pristup k tisícom torrentov.

  • vysoká rýchlost
  • úplne zdarma
  • prevazne Slovenska a Ceska scena
  • ste tu s nami uz 5 rokov - Dakujeme
  • Vitaj Guest (Login) Ako stahovat
    torrenty?
    Torrenty:
    v1 textová
    v2 obrázková
    v3 online filmy
    Ako sa stat
    Uploaderom
    Online
    Filmy
    Forum
    Pravidlá
    BitTorrent
    klient
    Meno: Heslo:
    Zaregistrovat
    Po zaregistrovaní mozte volne stahovat
    Zabudol som heslo

    Torrent's details
    Blade Runner  (1982)(CZ/EN)(2160p 4K BRRip) = CSFD 77% Názov:Blade Runner (1982)(CZ/EN)(2160p 4K BRRip) = CSFD 77% Hodnocení: Stiahnut
    Pozriet Online
    Kategória:UHD Filmy Velikost:31.8 GB BitTorrent klient
    Pridaný: Súbory:
    Skontrolován:2021-07-20 Peerov:5 (Seed: 4, Leech: 1)
    Zaner:Sci-Fi,Thriller Uploader:Uvidis, az ked budes
    VIP
    Kúp nám Pivo 1,10€

    Kúp nám Pivo
    Podporte nas na Facebooku !
    Pridaj do zalozky
    Pridaj do zalozky






    Blade Runner / Blade Runner
    (1982)(CZ/EN) = CSFD 77%

    2160p 4K HDR10 - HEVC – 38.7 Mb/s Bitrate verzia









    Video: 2160p 4K HDR10 - HEVC
    Jazyk: CZ 5.1 DD / EN 7.1 TrueHD / EN 5.1 DD
    Titulky: CZ
    Sci-Fi / Thriller
    USA 1982
    117 min

    Režie: Ridley Scott
    Předloha: Philip K. Dick (kniha)
    Scénář: Hampton Fancher, David Webb Peoples
    Kamera: Jordan Cronenweth
    Hudba: Vangelis
    Hrají: Harrison Ford, Rutger Hauer, Sean Young, Edward James Olmos, M. Emmet Walsh, Daryl Hannah, William Sanderson, Brion James, Joe Turkel, Joanna Cassidy, James Hong, Morgan Paull, Alexis Rhee, Dawna Lee Heising, Hy Pyke, Carolyn DeMirjian, Bob Okazaki, Ben Astar, Kevin Thompson

    OBSAH

    Příběh se odehrává v blízké budoucnosti, kdy věda pokročila a společnost začala vyrábět replikanty, kteří jsou od lidí k nerozeznání. Liší se jen tím, že žijí pouze čtyři roky. Replikanti jsou používáni pro nebezpečné mise, ale po krvavé vzpouře v jedné mimozemské kolonii jim byl zakázán vstup na Zemi pod trestem smrti. Na plnění tohoto nařízení dohlíží speciální policejní tým Blade Runner. Rick Deckard, bývalý člen této jednotky, je povolán zpět do akce, když je jeho kolega zákeřně zabit jedním z replikantů. Vyšetřování ho zavede do koncernu, který replikanty vyrábí. Zde se setkává s krásnou Rachael, ačkoliv není skutečným člověkem, ona sama je o svém lidství zcela přesvědčená. Rick na replikanty nahlíží jako na podřadné věci, ale díky sblížení se záhadnou Rachael začíná o svém vyhraněném názoru pochybovat. Jsou skutečně replikanti od lidí natolik odlišní a je třeba je vyhladit, jak to Deckardovi nařizují jeho velitelé?

    SCREEN



    TRAILER






    Hlavní
    Formát : Matroska
    Format version : Version 4
    Velikost souboru : 31,8 GiB
    Duration : 1 h 57 min
    Overall bit rate mode : Variable
    Celkový BitRate : 38,7 Mb/s
    Encoded date : UTC 2021-07-19 08:51:49
    Použitý software : mkvmerge v31.0.0 ('Dolores In A Shoestand') 64-bit
    Enkódoval : libebml v1.3.6 + libmatroska v1.4.9
    Obal : Yes
    Attachments : cover_land.jpg / small_cover.jpg / small_cover_land.jpg / cover.jpg

    Video
    ID : 1
    Formát : HEVC
    Formát/Info : High Efficiency Video Coding
    Format profile : Main 10@L5.1@High
    HDR format : SMPTE ST 2086, HDR10 compatible
    Codec ID : V_MPEGH/ISO/HEVC
    Duration : 1 h 57 min
    Bit rate : 33,3 Mb/s
    Šířka : 3 840pixely
    Výška : 1 600pixely
    Poměr stran : 2,40:1
    Frame rate mode : Constant
    Frame rate : 23,976 (24000/1001) FPS
    Color space : YUV
    Chroma subsampling : 4:2:0 (Type 2)
    Bit depth : 10 bits
    Bits/(Pixel*Frame) : 0.226
    Stream size : 27,3 GiB (86%)
    Enkódoval : x265 2.5+58-06979c042350:[Windows][GCC 6.2.1][64 bit] 10bit
    Default : Ano
    Forced : Ne
    Color range : Limited
    Color primaries : BT.2020
    Transfer characteristics : PQ
    Matrix coefficients : BT.2020 non-constant
    Mastering display color primaries : Display P3
    Mastering display luminance : min: 0.0050 cd/m2, max: 4000 cd/m2
    Maximum Content Light Level : 1655 cd/m2
    Maximum Frame-Average Light Level : 117 cd/m2

    Audio #1
    ID : 2
    Formát : MLP FBA 16-ch
    Formát/Info : Meridian Lossless Packing FBA with 16-channel presentation
    Commercial name : Dolby TrueHD with Dolby Atmos
    Codec ID : A_TRUEHD
    Duration : 1 h 57 min
    Bit rate mode : Variable
    Bit rate : 4 336 kb/s
    Maximum bit rate : 7 305 kb/s
    Kanál(y) : 8 kanály
    Channel layout : L R C LFE Ls Rs Lb Rb
    Sampling rate : 48,0 kHz
    Frame rate : 1 200,000 FPS (40 SPF)
    Compression mode : Lossless
    Stream size : 3,56 GiB (11%)
    Jazyk : English
    Default : Ne
    Forced : Ne
    Number of dynamic objects : 11
    Bed channel count : 1 kanál
    Bed channel configuration : LFE

    Audio #2
    ID : 3
    Formát : AC-3
    Formát/Info : Audio Coding 3
    Commercial name : Dolby Digital
    Format settings : Dolby Surround EX
    Codec ID : A_AC3
    Duration : 1 h 57 min
    Bit rate mode : Constant
    Bit rate : 448 kb/s
    Kanál(y) : 6 kanály
    Channel layout : L R C LFE Ls Rs
    Sampling rate : 48,0 kHz
    Frame rate : 31,250 FPS (1536 SPF)
    Compression mode : Lossy
    Stream size : 377 MiB (1%)
    Jazyk : English
    Service kind : Complete Main
    Default : Ne
    Forced : Ne

    Audio #3
    ID : 4
    Formát : AC-3
    Formát/Info : Audio Coding 3
    Commercial name : Dolby Digital
    Codec ID : A_AC3
    Duration : 1 h 57 min
    Bit rate mode : Constant
    Bit rate : 640 kb/s
    Kanál(y) : 6 kanály
    Channel layout : L R C LFE Ls Rs
    Sampling rate : 48,0 kHz
    Frame rate : 31,250 FPS (1536 SPF)
    Compression mode : Lossy
    Stream size : 538 MiB (2%)
    Jazyk : Czech
    Service kind : Complete Main
    Default : Ano
    Forced : Ano

    Text
    ID : 5
    Formát : UTF-8
    Codec ID : S_TEXT/UTF8
    Codec ID/Info : UTF-8 Plain Text
    Duration : 1 h 50 min
    Bit rate : 28 b/s
    Count of elements : 802
    Stream size : 23,0 KiB (0%)
    Default : Ano
    Forced : Ne

    Menu
    00:00:00.000 : en:00:00:00.000
    00:02:58.178 : en:00:02:58.178
    00:04:31.980 : en:00:04:31.980
    00:07:26.112 : en:00:07:26.112
    00:11:18.261 : en:00:11:18.261
    00:12:58.569 : en:00:12:58.569
    00:16:58.184 : en:00:16:58.184
    00:22:38.816 : en:00:22:38.816
    00:25:04.878 : en:00:25:04.878
    00:27:58.343 : en:00:27:58.343
    00:30:21.486 : en:00:30:21.486
    00:36:19.177 : en:00:36:19.177
    00:41:30.321 : en:00:41:30.321
    00:42:24.000 : en:00:42:24.000
    00:45:56.337 : en:00:45:56.337
    00:48:44.463 : en:00:48:44.463
    00:55:18.899 : en:00:55:18.899
    00:57:27.277 : en:00:57:27.277
    00:59:44.998 : en:00:59:44.998
    01:01:49.414 : en:01:01:49.414
    01:03:17.002 : en:01:03:17.002
    01:07:44.394 : en:01:07:44.394
    01:12:39.522 : en:01:12:39.522
    01:16:13.527 : en:01:16:13.527
    01:20:12.474 : en:01:20:12.474
    01:22:34.533 : en:01:22:34.533
    01:27:07.514 : en:01:27:07.514
    01:28:45.237 : en:01:28:45.237
    01:34:02.220 : en:01:34:02.220
    01:36:54.308 : en:01:36:54.308
    01:41:12.316 : en:01:41:12.316
    01:42:37.276 : en:01:42:37.276
    01:44:31.807 : en:01:44:31.807
    01:45:56.267 : en:01:45:56.267
    01:49:04.496 : en:01:49:04.496
    01:52:21.735 : en:01:52:21.735







    VDAKA ZA BODY a SEEDUJTE






    ONLINE











    maysa33, Lucifeeer.666, K28ttt46, NeoSteel67, mistrlister, dave8888, Alfons2803, Pitrsak,

    + Pridaj vlastnu verziu tohto torrentu +


    Upozornenie:
    Ziadny zo zobrazených súborov sa nenachádza na tomto serveri. Server slúzi len k síreniu vlastnorucne vytvorených aplikácií, videí, hudby ai. Autori stránok nenesú ziadnu zodpovednost za zverejnené odkazy, komentáre a obsah súborov. Vsetky komentáre, odkazy, súbory ktoré by svojou povahou mohli byt v rozpore zo zákonmi sem vkladáte na vlastnú zodpovednost. Autori stránok si vyhradzujú právo cenzúry odkazov, komentárov príp. súborov, ktoré by svojou povahou mohli byt v rozpore zo zákonmi a dobrými mravmi. Dodrzujte pravidlá!


    No comments...


    Back

    Na serveru se nenalézají zádne soubory. Za odkazy jsou výhradně zodpovědní uzivatelé a návstěvníci tohoto trackeru. Administrátor není zodpovědný za pridaný obsah ani za skody zpusobené uzivateli. Rozsirovat stránku nebo její obsah bez souhlasu ownera je zakázano. Nesmíte pouzívat tuto webovou stránku pro distribuovaní nebo download zádného materiálu pokud nemáte povolení od príslusného vlastníka práv. Uzivatelé jsou zodpovědní za dodrzování těchto pravidel a podmínek. Owner má právo kdykoliv změnit pravidla tohoto trackeru.

    [ Script trval: 0.023 sec. ] - [ GZIP: enabled ]
    Je zhruba 14:58

    TOPlist