Tvoj účet nieje VIP.
Preto sú tvoje funkcie a možnosti značne obmedzené.
Pre aktiváciu VIP klikni sem.

Blazni, vodnici a podvodnici (1980)(CZ)[TvRip] = CSFD 31% | SkTorrent.eu

Cz-SkTorrent open Tracker, na volné zdielanie súborov. Pridajte sa k nasej komunite a získajte pristup k tisícom torrentov.

  • vysoká rýchlost
  • úplne zdarma
  • prevazne Slovenska a Ceska scena
  • ste tu s nami uz 5 rokov - Dakujeme
  • Vitaj Guest (Login) Ako stahovat
    torrenty?
    Torrenty:
    v1 textová
    v2 obrázková
    v3 online filmy
    Ako sa stat
    Uploaderom
    Online
    Filmy
    Forum
    Pravidlá
    BitTorrent
    klient
    pruzinky
    Meno: Heslo:
    Zaregistrovat
    Po zaregistrovaní mozte volne stahovat
    Zabudol som heslo

    Torrent's details
    Blazni, vodnici a podvodnici (1980)(CZ)[TvRip] = CSFD 31% Názov:Blazni, vodnici a podvodnici (1980)(CZ)[TvRip] = CSFD 31% Hodnocení: Stiahnut
    Pozriet Online
    Kategória:Filmy CZ/SK dabing Velikost:751.7 MB BitTorrent klient
    Pridaný: Súbory:
    Skontrolován:2019-08-25 Peerov:6 (Seed: 6, Leech: 0)
    Zaner:Komedie Uploader:Uvidis, az ked budes
    VIP
    Kúp nám Pivo 1,10€

    Kúp nám Pivo
    Podporte nas na Facebooku !
    Pridaj do zalozky
    Pridaj do zalozky













         Blázni, vodníci a podvodníci

    Jazyk :cz

    KomedieČeskoslovensko, 1980, 78 min

     Režie:Tomáš Svoboda Scénář:Tomáš Svoboda, Roman Kaněra Kamera:Emil Sirotek Hudba:Jiří Šust Hrají:Jiří Lábus, Dagmar Havlová, Luděk Sobota, Petr Nárožný, Laďka Kozderková, Josef Kemr, Jiří Hrzán, Karel Augusta, Josef Somr, Miroslav Zounar, Karel Hála, Vlastimil Bedrna, Vladimír Hrabánek, Eugen Jegorov, Helena Růžičková, Jan Kuželka, Věra Nerušilová, Zdeněk Srstka, Bohuslav Kupšovský, Oldřich Velen, Robert Vrchota, Raoul Schrán… ([url=https://www.csfd.cz/film/8836-blazni-vodnici-a-podvodnici/prehled/#show more content]více[/url])Střih:Jaromír Janáček Zvuk:Jiří Lenoch Scénografie:Jan Oliva Kostýmy:Theodor Pištěk ml., Eva Lackingerová








    https://www.csfd.cz/film/8836-blazni-vodnici-a-podvodnici/prehled/#











     Ztřeštěná komedie, přecházející řadou absurdních prvků do grotesky, vypráví zamotaný příběh vypečených sourozenců Zuzany a Petra, recesistů, kteří rádi připravují svému okolí, především Zuzaninu nesmělému nápadníkovi Karlíkovi, drsná překvapení. Kromě povedeného pana Horáka a figuríny, hraje důležitou roli také ochotnický soubor Dalimil, který neúnavně nacvičuje "avantgardní" provedení Jiráskovy Lucerny...(oficiální text distributora)




    Tvrip


    Format                           : AVI
    Format/Info                      : Audio Video Interleave
    File size                        : 752 MiB
    Duration                         : 1h 18mn
    Overall bit rate                 : 1 334 Kbps

    Video
    ID                               : 0
    Format                           : MPEG-4 Visual
    Format profile                   : Advanced Simple@L5
    Format settings, BVOP            : 2
    Format settings, QPel            : No
    Format settings, GMC             : No warppoints
    Format settings, Matrix          : Default (H.263)
    Muxing mode                      : Packed bitstream
    Codec ID                         : XVID
    Codec ID/Hint                    : XviD
    Duration                         : 1h 18mn
    Bit rate                         : 1 199 Kbps
    Width                            : 576 pixels
    Height                           : 432 pixels
    Display aspect ratio             : 4:3
    Frame rate                       : 25.000 fps
    Color space                      : YUV
    Chroma subsampling               : 4:2:0
    Bit depth                        : 8 bits
    Scan type                        : Progressive
    Compression mode                 : Lossy
    Bits/(Pixel*Frame)               : 0.193
    Stream size                      : 676 MiB (90%)
    Writing library                  : XviD 1.1.2 (UTC 2006-11-01)

    Audio
    ID                               : 1
    Format                           : AC-3
    Format/Info                      : Audio Coding 3
    Mode extension                   : CM (complete main)
    Codec ID                         : 2000
    Duration                         : 1h 18mn
    Bit rate mode                    : Constant
    Bit rate                         : 128 Kbps
    Channel(s)                       : 2 channels
    Channel positions                : Front: L R
    Sampling rate                    : 48.0 KHz
    Bit depth                        : 16 bits
    Compression mode                 : Lossy
    Stream size                      : 72.1 MiB (10%)
    Alignment                        : Split accross interleaves
    Interleave, duration             : 1000 ms (25.00 video frames)



     



    ONLINE




    Upozornenie:
    Ziadny zo zobrazených súborov sa nenachádza na tomto serveri. Server slúzi len k síreniu vlastnorucne vytvorených aplikácií, videí, hudby ai. Autori stránok nenesú ziadnu zodpovednost za zverejnené odkazy, komentáre a obsah súborov. Vsetky komentáre, odkazy, súbory ktoré by svojou povahou mohli byt v rozpore zo zákonmi sem vkladáte na vlastnú zodpovednost. Autori stránok si vyhradzujú právo cenzúry odkazov, komentárov príp. súborov, ktoré by svojou povahou mohli byt v rozpore zo zákonmi a dobrými mravmi. Dodrzujte pravidlá!




    Uploader
    25/08/2019 14.15.22
    Drazí přatele p2p komunity,pokud mate radi klasiku z let 80+ zamechte mi zde koment stim co by ste chtěíi nahodit a ja se pokusim vam to přidat.Děkuji za pozornost


    Back

    Na serveru se nenalézají zádne soubory. Za odkazy jsou výhradně zodpovědní uzivatelé a návstěvníci tohoto trackeru. Administrátor není zodpovědný za pridaný obsah ani za skody zpusobené uzivateli. Rozsirovat stránku nebo její obsah bez souhlasu ownera je zakázano. Nesmíte pouzívat tuto webovou stránku pro distribuovaní nebo download zádného materiálu pokud nemáte povolení od príslusného vlastníka práv. Uzivatelé jsou zodpovědní za dodrzování těchto pravidel a podmínek. Owner má právo kdykoliv změnit pravidla tohoto trackeru.

    [ Script trval: 0.037 sec. ] - [ GZIP: enabled ]
    BtiTracker (1.4.8) by Btiteam
    Je zhruba 01:48

    TOPlist