Tvoj účet nieje VIP.
Preto sú tvoje funkcie a možnosti značne obmedzené.
Pre aktiváciu VIP klikni sem.

Blazniva mise 4 / Zui jia pai dang 4: Qian li jiu chai po (1986)(CZ) = CSFD 64% | SkTorrent.eu

Cz-SkTorrent open Tracker, na volné zdielanie súborov. Pridajte sa k nasej komunite a získajte pristup k tisícom torrentov.

  • vysoká rýchlost
  • úplne zdarma
  • prevazne Slovenska a Ceska scena
  • ste tu s nami uz 5 rokov - Dakujeme
  • Vitaj Guest (Login) Ako stahovat
    torrenty?
    Torrenty:
    v1 textová
    v2 obrázková
    v3 online filmy
    Ako sa stat
    Uploaderom
    Online
    Filmy
    Forum
    Pravidlá
    BitTorrent
    klient
    Meno: Heslo:
    Zaregistrovat
    Po zaregistrovaní mozte volne stahovat
    Zabudol som heslo

    Torrent's details
    Blazniva mise 4 / Zui jia pai dang 4: Qian li jiu chai po (1986)(CZ) = CSFD 64% Názov:Blazniva mise 4 / Zui jia pai dang 4: Qian li jiu chai po (1986)(CZ) = CSFD 64% Hodnocení: Stiahnut
    Pozriet Online
    Kategória:Filmy CZ/SK dabing Velikost:813.3 MB BitTorrent klient
    Pridaný: Súbory:
    Skontrolován:2020-09-12 Peerov:32 (Seed: 31, Leech: 1)
    Zaner:Akcni,Komedie Uploader:Uvidis, az ked budes
    VIP
    Kúp nám Pivo 1,10€

    Kúp nám Pivo
    Podporte nas na Facebooku !
    Pridaj do zalozky
    Pridaj do zalozky




    Bláznivá mise 4

  •     Bláznivá mise 4: Nikdo neumírá dvakrát
  •     Zui jia pai dang 4: Qian li jiu chai po
  • (další názvy)

    Akční / Komedie
    Hongkong / Nový Zéland, 1986, 86 min
    Režie: Ringo Lam
    Scénář:Karl Maka
    Kamera:Sander Lee
    Hudba:Antonio "Tony" Arevalo
    Hrají:Sylvia Chang, Samuel Hui, Ronald Lacey, Karl Maka, Peter McCauley, Kien Shih, Sally Yeh, Tak-Hing Kwan, Kwok-tse Chang, Eddie Shu-chi Chan (další profese)

    Obsah

  • V tomto díle je stvořen mocný krystal, který z člověka může udělat superčlověka. A tak Sam musí jako vždy pomoci a tento krystal se svými přáteli střežit, aby se nedostal do nepravých rukou a nebyl zneužit. Ale jak to tak bývá, krystal je ukraden a začíná boj o znovuzískání, ale i o záchranu Kodyžakovi rodiny.(Chupacabre)


    Hlavní
    Blazniva mise 4.avi
    Formát                                   : DivX
    Formát/Info                              : Hack of AVI
    Velikost souboru                         : 813 MiB
    Duration                                 : 1 h 19 min
    Celkový BitRate                          : 1 438 kb/s
    FileExtension_Invalid                    : divx

    Video
    ID                                       : 0
    Formát                                   : MPEG-4 Visual
    Format settings                          : BVOP1
    Format settings, BVOP                    : 1
    Format settings, QPel                    : Ne
    Format settings, GMC                     : No warppoints
    Format settings, Matrix                  : Default (H.263)
    Muxing mode                              : Packed bitstream
    Codec ID                                 : DX50
    Codec ID/Hint                            : DivX 5
    Duration                                 : 1 h 19 min
    Bit rate                                 : 1 300 kb/s
    Nominal bit rate                         : 4 854 kb/s
    Šířka                                    : 704pixely
    Výška                                    : 528pixely
    Poměr stran                              : 4:3
    Frame rate                               : 25,000 FPS
    Color space                              : YUV
    Chroma subsampling                       : 4:2:0
    Bit depth                                : 8 bits
    Scan type                                : Progressive
    Compression mode                         : Lossy
    Bits/(Pixel*Frame)                       : 0.140
    Stream size                              : 735 MiB (90%)
    Titul                                    : Video
    Enkódoval                                : DivX 6.1.1 (UTC 2006-02-01)

    Audio
    ID                                       : 1
    Formát                                   : MPEG Audio
    Format version                           : Version 1
    Format profile                           : Layer 3
    Format settings                          : Dual mono
    Codec ID                                 : 55
    Codec ID/Hint                            : MP3
    Duration                                 : 1 h 19 min
    Bit rate mode                            : Constant
    Bit rate                                 : 128 kb/s
    Kanál(y)                                 : 2 kanály
    Sampling rate                            : 44,1 kHz
    Compression mode                         : Lossy
    Stream size                              : 72,4 MiB (9%)
    Alignment                                : Split across interleaves
    Interleave, duration                     : 40  ms (1,00 video frame)
    Interleave, preload duration             : 500  ms
    Titul                                    : Audio



    JAZYK: CZ

    https://www.csfd.cz/film/14112-blazniva-mise-4/prehled/








    merkuco, kanar9999, Gay,

    + Pridaj vlastnu verziu tohto torrentu +


  • Upozornenie:
    Ziadny zo zobrazených súborov sa nenachádza na tomto serveri. Server slúzi len k síreniu vlastnorucne vytvorených aplikácií, videí, hudby ai. Autori stránok nenesú ziadnu zodpovednost za zverejnené odkazy, komentáre a obsah súborov. Vsetky komentáre, odkazy, súbory ktoré by svojou povahou mohli byt v rozpore zo zákonmi sem vkladáte na vlastnú zodpovednost. Autori stránok si vyhradzujú právo cenzúry odkazov, komentárov príp. súborov, ktoré by svojou povahou mohli byt v rozpore zo zákonmi a dobrými mravmi. Dodrzujte pravidlá!




    Uploader
    12/09/2020 18.54.23
    Omlouvam se za kvalitu.Jak jsem koupil,tak predavam.


    --------------
    >> 12/09/2020 20.33.08
    merkuco: To je v pohode.
    A 5 cast nemas ?



    --------------
    >> 12/09/2020 21.41.35
    Reardant: Taky jeste prosim o 5ku, mam ji jen v cinstine s eng titlama


    Back

    Na serveru se nenalézají zádne soubory. Za odkazy jsou výhradně zodpovědní uzivatelé a návstěvníci tohoto trackeru. Administrátor není zodpovědný za pridaný obsah ani za skody zpusobené uzivateli. Rozsirovat stránku nebo její obsah bez souhlasu ownera je zakázano. Nesmíte pouzívat tuto webovou stránku pro distribuovaní nebo download zádného materiálu pokud nemáte povolení od príslusného vlastníka práv. Uzivatelé jsou zodpovědní za dodrzování těchto pravidel a podmínek. Owner má právo kdykoliv změnit pravidla tohoto trackeru.

    [ Script trval: 0.023 sec. ] - [ GZIP: enabled ]
    BtiTracker (1.4.8) by Btiteam
    Je zhruba 07:43

    TOPlist