Tvoj účet nieje VIP.
Preto sú tvoje funkcie a možnosti značne obmedzené.
Pre aktiváciu VIP klikni sem.

Bogdan Boner: Egzorcysta (CZ/GER/EN/POL)(WebRip)(2020-2021)(1080p) = CSFD 86% | SkTorrent.eu

Cz-SkTorrent open Tracker, na volné zdielanie súborov. Pridajte sa k nasej komunite a získajte pristup k tisícom torrentov.

  • vysoká rýchlost
  • úplne zdarma
  • prevazne Slovenska a Ceska scena
  • ste tu s nami uz 5 rokov - Dakujeme
  • Vitaj Guest (Login) Ako stahovat
    torrenty?
    Torrenty:
    v1 textová
    v2 obrázková
    v3 online filmy
    Ako sa stat
    Uploaderom
    Online
    Filmy
    Forum
    Pravidlá
    BitTorrent
    klient
    Meno: Heslo:
    Zaregistrovat
    Po zaregistrovaní mozte volne stahovat
    Zabudol som heslo

    Torrent's details
    Bogdan Boner: Egzorcysta (CZ/GER/EN/POL)(WebRip)(2020-2021)(1080p) = CSFD 86% Názov:Bogdan Boner: Egzorcysta (CZ/GER/EN/POL)(WebRip)(2020-2021)(1080p) = CSFD 86% Hodnocení: Stiahnut
    Pozriet Online
    Kategória:Seriál Velikost:7.5 GB BitTorrent klient
    Pridaný: Súbory:
    Skontrolován:2022-08-04 Peerov:31 (Seed: 29, Leech: 2)
    Zaner:Animovany,Komedie Uploader:Uvidis, az ked budes
    VIP
    Kúp nám Pivo 1,10€

    Kúp nám Pivo
    Podporte nas na Facebooku !
    Pridaj do zalozky
    Pridaj do zalozky











    Komedie / Animovaný
    Polsko, (2020–2021), 5 h 12 min (Minutáž: 11–17 min)


    Série S01+S02

    Celkem 26 dílů


    Video: 1080p MKV
    Audio : CZ/GER/EN/POL Dabing - E-AC-3 5.1- 640 kb/s
    Titulky : CZ/GER/EN/POL + forced

    Režie: Bartosz Walaszek
    Scénář: Bartosz Walaszek
    Hrají: Bartosz Walaszek
    Produkce: Bartosz Walaszek

    Náhled








    Žádný démon není v bezpečí, protože Bogdan Boner, samouk a vymítač ďábla na zakázku, se vrací s dalšími vynalézavými, obscénními a smrtícími činy.



    Formát                                   : Matroska
    Format version                           : Version 4
    Velikost souboru                         : 452 MiB
    Duration                                 : 17 min 40 s
    Overall bit rate mode                    : Variable
    Celkový BitRate                          : 3 577 kb/s
    Název filmu                              : Pekelná prohibice
    Description                              : Opilý démon v pekle znesvětí sochu, a vládce pekel proto zvýší věkovou hranici, odkdy se smí pít alkohol. Démoni si ale poradí a krádeží lihovin na Zemi přibyde.
    Použitý software                         : Lavf58.45.100
    Enkódoval                                : Lavf58.45.100
    ErrorDetectionType                       : Per level 1
    EPISODE_ID                               : 1
    SEASON_NUMBER                            : 1
    SHOW                                     : Vymítač Boner

    Video
    ID                                       : 1
    Formát                                   : AVC
    Formát/Info                              : Advanced Video Codec
    Format profile                           : High@L4
    Format settings                          : CABAC / 4 Ref Frames
    Format settings, CABAC                   : Ano
    Format settings, Reference frames        : 4 frames
    Codec ID                                 : V_MPEG4/ISO/AVC
    Duration                                 : 17 min 38 s
    Bit rate mode                            : Variable
    Bit rate                                 : 946 kb/s
    Maximum bit rate                         : 20,0 Mb/s
    Šířka                                    : 1 920pixely
    Výška                                    : 1 080pixely
    Poměr stran                              : 16:9
    Frame rate mode                          : Constant
    Frame rate                               : 24,000 FPS
    Color space                              : YUV
    Chroma subsampling                       : 4:2:0
    Bit depth                                : 8 bits
    Scan type                                : Progressive
    Bits/(Pixel*Frame)                       : 0.019
    Stream size                              : 119 MiB (26%)
    Titul                                    : 264:fmt=264:moovts=-1:fps=24:deps:par=auto@GPAC2.1-DEV-rev6242-g07e35adfb-HEAD
    Enkódoval                                : x264 core 148 r2722 1b0121b
    Nastavení enkoderu                       : cabac=1 / ref=4 / deblock=1:0:0 / analyse=0x3:0x111 / me=umh / subme=10 / psy=1 / psy_rd=1.00:0.00 / mixed_ref=1 / me_range=120 / chroma_me=1 / trellis=2 / 8x8dct=1 / cqm=0 / deadzone=21,11 / fast_pskip=1 / chroma_qp_offset=-2 / threads=8 / lookahead_threads=2 / sliced_threads=0 / nr=0 / decimate=1 / interlaced=0 / bluray_compat=0 / stitchable=1 / constrained_intra=0 / bframes=16 / b_pyramid=2 / b_adapt=2 / b_bias=0 / direct=3 / weightb=1 / open_gop=0 / weightp=2 / keyint=240 / keyint_min=121 / scenecut=0 / intra_refresh=0 / rc_lookahead=240 / rc=crf / mbtree=1 / crf=26.0 / qcomp=0.50 / qpmin=6 / qpmax=51 / qpstep=4 / vbv_maxrate=20000 / vbv_bufsize=25000 / crf_max=0.0 / nal_hrd=vbr / filler=0 / ip_ratio=1.40 / aq=1:0.80
    Default                                  : Ano
    Forced                                   : Ne

    Audio #1
    ID                                       : 2
    Formát                                   : E-AC-3
    Formát/Info                              : Enhanced AC-3
    Commercial name                          : Dolby Digital Plus
    Codec ID                                 : A_EAC3
    Duration                                 : 17 min 40 s
    Bit rate mode                            : Constant
    Bit rate                                 : 640 kb/s
    Kanál(y)                                 : 6 kanály
    Channel layout                           : L R C LFE Ls Rs
    Sampling rate                            : 48,0 kHz
    Frame rate                               : 31,250 FPS (1536 SPF)
    Bit depth                                : 32 bits
    Compression mode                         : Lossy
    Stream size                              : 80,9 MiB (18%)
    Titul                                    : čeština
    Jazyk                                    : Czech
    Service kind                             : Complete Main
    Default                                  : Ano
    Forced                                   : Ne

    Audio #2
    ID                                       : 3
    Formát                                   : E-AC-3
    Formát/Info                              : Enhanced AC-3
    Commercial name                          : Dolby Digital Plus
    Codec ID                                 : A_EAC3
    Duration                                 : 17 min 40 s
    Bit rate mode                            : Constant
    Bit rate                                 : 640 kb/s
    Kanál(y)                                 : 6 kanály
    Channel layout                           : L R C LFE Ls Rs
    Sampling rate                            : 48,0 kHz
    Frame rate                               : 31,250 FPS (1536 SPF)
    Bit depth                                : 32 bits
    Compression mode                         : Lossy
    Stream size                              : 80,9 MiB (18%)
    Titul                                    : němčina
    Jazyk                                    : German
    Service kind                             : Complete Main
    Default                                  : Ne
    Forced                                   : Ne

    Audio #3
    ID                                       : 4
    Formát                                   : E-AC-3
    Formát/Info                              : Enhanced AC-3
    Commercial name                          : Dolby Digital Plus
    Codec ID                                 : A_EAC3
    Duration                                 : 17 min 40 s
    Bit rate mode                            : Constant
    Bit rate                                 : 640 kb/s
    Kanál(y)                                 : 6 kanály
    Channel layout                           : L R C LFE Ls Rs
    Sampling rate                            : 48,0 kHz
    Frame rate                               : 31,250 FPS (1536 SPF)
    Bit depth                                : 32 bits
    Compression mode                         : Lossy
    Stream size                              : 80,9 MiB (18%)
    Titul                                    : angličtina
    Jazyk                                    : English
    Service kind                             : Complete Main
    Default                                  : Ne
    Forced                                   : Ne

    Audio #4
    ID                                       : 5
    Formát                                   : E-AC-3
    Formát/Info                              : Enhanced AC-3
    Commercial name                          : Dolby Digital Plus
    Codec ID                                 : A_EAC3
    Duration                                 : 17 min 40 s
    Bit rate mode                            : Constant
    Bit rate                                 : 640 kb/s
    Kanál(y)                                 : 6 kanály
    Channel layout                           : L R C LFE Ls Rs
    Sampling rate                            : 48,0 kHz
    Frame rate                               : 31,250 FPS (1536 SPF)
    Bit depth                                : 32 bits
    Compression mode                         : Lossy
    Stream size                              : 80,9 MiB (18%)
    Titul                                    : polština [Originál]
    Jazyk                                    : Polish
    Service kind                             : Complete Main
    Default                                  : Ne
    Forced                                   : Ne

    Text #1
    ID                                       : 6
    Formát                                   : UTF-8
    Codec ID                                 : S_TEXT/UTF8
    Codec ID/Info                            : UTF-8 Plain Text
    Duration                                 : 16 min 51 s
    Titul                                    : čeština
    Enkódoval                                : Lavc58.91.100 srt
    Jazyk                                    : Czech
    Default                                  : Ne
    Forced                                   : Ne

    Text #2
    ID                                       : 7
    Formát                                   : UTF-8
    Codec ID                                 : S_TEXT/UTF8
    Codec ID/Info                            : UTF-8 Plain Text
    Duration                                 : 16 min 51 s
    Titul                                    : Czech [ForcedNarrative]
    Enkódoval                                : Lavc58.91.100 srt
    Jazyk                                    : Czech
    Default                                  : Ne
    Forced                                   : Ne

    Text #3
    ID                                       : 8
    Formát                                   : UTF-8
    Codec ID                                 : S_TEXT/UTF8
    Codec ID/Info                            : UTF-8 Plain Text
    Duration                                 : 16 min 53 s
    Titul                                    : němčina
    Enkódoval                                : Lavc58.91.100 srt
    Jazyk                                    : German
    Default                                  : Ne
    Forced                                   : Ne

    Text #4
    ID                                       : 9
    Formát                                   : UTF-8
    Codec ID                                 : S_TEXT/UTF8
    Codec ID/Info                            : UTF-8 Plain Text
    Duration                                 : 16 min 53 s
    Titul                                    : German [ForcedNarrative]
    Enkódoval                                : Lavc58.91.100 srt
    Jazyk                                    : German
    Default                                  : Ne
    Forced                                   : Ne

    Text #5
    ID                                       : 10
    Formát                                   : UTF-8
    Codec ID                                 : S_TEXT/UTF8
    Codec ID/Info                            : UTF-8 Plain Text
    Duration                                 : 16 min 37 s
    Titul                                    : English [ForcedNarrative]
    Enkódoval                                : Lavc58.91.100 srt
    Jazyk                                    : English
    Default                                  : Ano
    Forced                                   : Ne

    Text #6
    ID                                       : 11
    Formát                                   : UTF-8
    Codec ID                                 : S_TEXT/UTF8
    Codec ID/Info                            : UTF-8 Plain Text
    Duration                                 : 16 min 37 s
    Titul                                    : angličtina
    Enkódoval                                : Lavc58.91.100 srt
    Jazyk                                    : English
    Default                                  : Ne
    Forced                                   : Ne

    Text #7
    ID                                       : 12
    Formát                                   : UTF-8
    Codec ID                                 : S_TEXT/UTF8
    Codec ID/Info                            : UTF-8 Plain Text
    Duration                                 : 16 min 39 s
    Titul                                    : angličtina
    Enkódoval                                : Lavc58.91.100 srt
    Jazyk                                    : English
    Default                                  : Ne
    Forced                                   : Ne

    Text #8
    ID                                       : 13
    Formát                                   : UTF-8
    Codec ID                                 : S_TEXT/UTF8
    Codec ID/Info                            : UTF-8 Plain Text
    Duration                                 : 16 min 50 s
    Titul                                    : polština [CC]
    Enkódoval                                : Lavc58.91.100 srt
    Jazyk                                    : Polish
    Default                                  : Ne
    Forced                                   : Ne













    doboska, nemesis0709, ElCufros, tiestik, yardaz, 01010101, pretorian_pp, pohee, Merlin88, gomez79, teapel, ROMANV1965, dataline60, Trismegistos,

    + Pridaj vlastnu verziu tohto torrentu +


    Upozornenie:
    Ziadny zo zobrazených súborov sa nenachádza na tomto serveri. Server slúzi len k síreniu vlastnorucne vytvorených aplikácií, videí, hudby ai. Autori stránok nenesú ziadnu zodpovednost za zverejnené odkazy, komentáre a obsah súborov. Vsetky komentáre, odkazy, súbory ktoré by svojou povahou mohli byt v rozpore zo zákonmi sem vkladáte na vlastnú zodpovednost. Autori stránok si vyhradzujú právo cenzúry odkazov, komentárov príp. súborov, ktoré by svojou povahou mohli byt v rozpore zo zákonmi a dobrými mravmi. Dodrzujte pravidlá!





    0
    dataline60
    Ratio 2.58

    Member+

    08/08/2022 00.28.38
    Kdy bude třetí serie? Stačí PL dabing a Cz titulky

    0
    Toasat165
    Ratio 1



    04/08/2022 16.02.48
    bude i poslední serie s cz dabingem sice to mám skouklé na netflixu ale mít to u sebe na disku by se hodilo.

    0
    ElCufros
    Ratio 0.11

    Clen

    04/08/2022 11.29.09
    díky moc


    Back

    Na serveru se nenalézají zádne soubory. Za odkazy jsou výhradně zodpovědní uzivatelé a návstěvníci tohoto trackeru. Administrátor není zodpovědný za pridaný obsah ani za skody zpusobené uzivateli. Rozsirovat stránku nebo její obsah bez souhlasu ownera je zakázano. Nesmíte pouzívat tuto webovou stránku pro distribuovaní nebo download zádného materiálu pokud nemáte povolení od príslusného vlastníka práv. Uzivatelé jsou zodpovědní za dodrzování těchto pravidel a podmínek. Owner má právo kdykoliv změnit pravidla tohoto trackeru.

    [ Script trval: 0.034 sec. ] - [ GZIP: enabled ]
    Je zhruba 12:26
    sql

    TOPlist